Loading...
Error

Православный Пушкин (Сергей Андрюшкин) [2013 г., Документальный, биография, история, DVD5]

Ответить на тему
Статистика раздачи
   
 
Автор Сообщение

stepan-frunze

Стаж: 10 лет

Сообщений: 2563

Russia

post 14-Янв-2014 01:24

[Цитировать] 

Православный Пушкин

pic
Год выпуска: 2013
Жанр: Документальный, биография, история
Продолжительность: 01:01:41

Режиссер: Сергей Андрюшкин

Описание: О фильме: А.С. Пушкин является основоположником православной традиции в русской литературе. Однако о поэте бытует и другое - неверное мнение как о безбожнике. Этот фильм расскажет о том, что в действительности представляла собой жизнь поэта: непрерывный нравственный подвиг борьбы со своими страстями и с веяниями, которые навязывал век просвещения. Тот факт, что прославленный в лике святых, митрополит Московский Филарет адресовал Пушкину строки утешения подтверждает, что гениальный талант русского поэта был не только замечен, но и особым образом признан крупнейшим церковным авторитетом того времени.

Дополнительная информация: Сканы в раздаче!

Качество: DVD5
Формат: DVD Video
Видео кодек: MPEG2
Аудио кодек: AC3
Видео:MPEG 2, 720x576 (4:3), 25.000 fps, 7 000 Kbps (0.480 bit/pixel)
Аудио:PCM, 48.0 KHz, 2 ch, 1 536 Kbps, CBR
скриншоты
[img]picpicpicpicpicpic[/img]
MediaInfo
Общее
Полное имя : C:\На раздаче\Православный Пушкин 2013 РУ DVD-5\VIDEO_TS\VIDEO_TS.BUP
Формат : DVD Video
Профиль формата : Menu
Размер файла : 102 Кбайт
Режим общего битрейта : Переменный

Видео
Идентификатор : 224 (0xE0)
Формат : MPEG Video
Версия формата : Version 2
Вид битрейта : Переменный
Ширина : 720 пикселей
Высота : 576 пикселей
Соотношение сторон : 4:3
Частота кадров : 25,000 кадров/сек
Стандарт вещания : PAL
Метод сжатия : С потерями

Аудио
Формат : PCM
Каналы : 2 канала
Частота : 48,0 КГц

Текст
Формат : RLE
Формат/Информация : Run-length encoding
Битовая глубина : 2 бит

Общее
Полное имя : C:\На раздаче\Православный Пушкин 2013 РУ DVD-5\VIDEO_TS\VIDEO_TS.IFO
Формат : DVD Video
Профиль формата : Menu
Размер файла : 102 Кбайт
Режим общего битрейта : Переменный

Видео
Идентификатор : 224 (0xE0)
Формат : MPEG Video
Версия формата : Version 2
Вид битрейта : Переменный
Ширина : 720 пикселей
Высота : 576 пикселей
Соотношение сторон : 4:3
Частота кадров : 25,000 кадров/сек
Стандарт вещания : PAL
Метод сжатия : С потерями

Аудио
Формат : PCM
Каналы : 2 канала
Частота : 48,0 КГц

Текст
Формат : RLE
Формат/Информация : Run-length encoding
Битовая глубина : 2 бит

Общее
Полное имя : C:\На раздаче\Православный Пушкин 2013 РУ DVD-5\VIDEO_TS\VIDEO_TS.VOB
Формат : MPEG-PS
Размер файла : 211 Мбайт
Продолжительность : 2 м. 39 с.
Режим общего битрейта : Переменный
Общий поток : 11,0 Мбит/сек

Видео
Идентификатор : 224 (0xE0)
Формат : MPEG Video
Версия формата : Version 2
Профиль формата : Main@Main
Параметр BVOP формата : Да
Параметр матрицы формата : По умолчанию
Параметр GOP формата : Variable
Продолжительность : 40 мс.
Вид битрейта : Переменный
Битрейт : 9289 Кбит/сек
Максимальный битрейт : 8000 Кбит/сек
Ширина : 720 пикселей
Высота : 576 пикселей
Соотношение сторон : 4:3
Частота кадров : 25,000 кадров/сек
Стандарт вещания : PAL
Цветовое пространство : YUV
Субдискретизация насыщенности : 4:2:0
Битовая глубина : 8 бит
Тип развёртки : Прогрессивная
Метод сжатия : С потерями
Бит/(Пиксели*Кадры) : 0.896
Временной код первого кадра : 00:00:00:00
Оригинал временного кода : Group of pictures header
Размер потока : 45,4 Кбайт (0%)
Основные цвета : BT.601 PAL
Характеристики трансфера : BT.470 System B, BT.470 System G
Коэффициенты матрицы : BT.601

Аудио
Идентификатор : 189 (0xBD)-160 (0xA0)
Формат : PCM
Параметр Endianness формата : Big
Параметр Sign формата : Signed
Режим смешивания : DVD-Video
Продолжительность : 2 м. 39 с.
Вид битрейта : Постоянный
Битрейт : 1536 Кбит/сек
Каналы : 2 канала
Частота : 48,0 КГц
Битовая глубина : 16 бит
Размер потока : 29,3 Мбайт (14%)

Текст
Идентификатор : 189 (0xBD)-32 (0x20)
Формат : RLE
Формат/Информация : Run-length encoding
Режим смешивания : DVD-Video

Меню

Общее
Полное имя : C:\На раздаче\Православный Пушкин 2013 РУ DVD-5\VIDEO_TS\VTS_01_0.BUP
Формат : DVD Video
Профиль формата : Program
Размер файла : 58,0 Кбайт
Продолжительность : 1 ч. 1 м.
Режим общего битрейта : Переменный
Общий поток : 128 бит/сек

Видео
Идентификатор : 224 (0xE0)
Формат : MPEG Video
Версия формата : Version 2
Продолжительность : 1 ч. 1 м.
Вид битрейта : Переменный
Ширина : 720 пикселей
Высота : 576 пикселей
Соотношение сторон : 4:3
Частота кадров : 25,000 кадров/сек
Стандарт вещания : PAL
Метод сжатия : С потерями

Аудио
Идентификатор : 0 (0x0)
Формат : PCM
Продолжительность : 1 ч. 1 м.
Каналы : 2 канала
Частота : 48,0 КГц

Меню
Продолжительность : 1 ч. 1 м.
00:00:00.000 : Chapter 1
00:04:34.000 : Chapter 2
00:13:14.320 : Chapter 3
00:21:36.400 : Chapter 4
00:34:42.640 : Chapter 5
00:48:08.560 : Chapter 6
List (Audio) : 0

Общее
Полное имя : C:\На раздаче\Православный Пушкин 2013 РУ DVD-5\VIDEO_TS\VTS_01_0.IFO
Формат : DVD Video
Профиль формата : Program
Размер файла : 58,0 Кбайт
Продолжительность : 1 ч. 1 м.
Режим общего битрейта : Переменный
Общий поток : 128 бит/сек

Видео
Идентификатор : 224 (0xE0)
Формат : MPEG Video
Версия формата : Version 2
Продолжительность : 1 ч. 1 м.
Вид битрейта : Переменный
Ширина : 720 пикселей
Высота : 576 пикселей
Соотношение сторон : 4:3
Частота кадров : 25,000 кадров/сек
Стандарт вещания : PAL
Метод сжатия : С потерями

Аудио
Идентификатор : 0 (0x0)
Формат : PCM
Продолжительность : 1 ч. 1 м.
Каналы : 2 канала
Частота : 48,0 КГц

Меню
Продолжительность : 1 ч. 1 м.
00:00:00.000 : Chapter 1
00:04:34.000 : Chapter 2
00:13:14.320 : Chapter 3
00:21:36.400 : Chapter 4
00:34:42.640 : Chapter 5
00:48:08.560 : Chapter 6
List (Audio) : 0

Общее
Полное имя : C:\На раздаче\Православный Пушкин 2013 РУ DVD-5\VIDEO_TS\VTS_01_1.VOB
Формат : MPEG-PS
Размер файла : 1024 Мбайт
Продолжительность : 21 м.
Режим общего битрейта : Переменный
Общий поток : 6681 Кбит/сек

Видео
Идентификатор : 224 (0xE0)
Формат : MPEG Video
Версия формата : Version 2
Профиль формата : Main@Main
Параметр BVOP формата : Да
Параметр матрицы формата : По умолчанию
Параметр GOP формата : M=3, N=12
Продолжительность : 21 м.
Вид битрейта : Переменный
Битрейт : 5012 Кбит/сек
Максимальный битрейт : 7000 Кбит/сек
Ширина : 720 пикселей
Высота : 576 пикселей
Соотношение сторон : 4:3
Частота кадров : 25,000 кадров/сек
Стандарт вещания : PAL
Цветовое пространство : YUV
Субдискретизация насыщенности : 4:2:0
Битовая глубина : 8 бит
Тип развёртки : Чересстрочная
Порядок развёртки : Нижнее поле первое
Метод сжатия : С потерями
Бит/(Пиксели*Кадры) : 0.483
Временной код первого кадра : 00:00:00:00
Оригинал временного кода : Group of pictures header
Размер потока : 768 Мбайт (75%)

Аудио
Идентификатор : 189 (0xBD)-160 (0xA0)
Формат : PCM
Параметр Endianness формата : Big
Параметр Sign формата : Signed
Режим смешивания : DVD-Video
Продолжительность : 21 м.
Вид битрейта : Постоянный
Битрейт : 1536 Кбит/сек
Каналы : 2 канала
Частота : 48,0 КГц
Битовая глубина : 16 бит
Задержка видео : -80 мс.
Размер потока : 235 Мбайт (23%)

Меню

Общее
Полное имя : C:\На раздаче\Православный Пушкин 2013 РУ DVD-5\VIDEO_TS\VTS_01_2.VOB
Формат : MPEG-PS
Размер файла : 1024 Мбайт
Продолжительность : 21 м.
Режим общего битрейта : Переменный
Общий поток : 6671 Кбит/сек

Видео
Идентификатор : 224 (0xE0)
Формат : MPEG Video
Версия формата : Version 2
Профиль формата : Main@Main
Параметр BVOP формата : Да
Параметр матрицы формата : По умолчанию
Параметр GOP формата : M=3, N=12
Продолжительность : 21 м.
Вид битрейта : Переменный
Битрейт : 5002 Кбит/сек
Максимальный битрейт : 7000 Кбит/сек
Ширина : 720 пикселей
Высота : 576 пикселей
Соотношение сторон : 4:3
Частота кадров : 25,000 кадров/сек
Стандарт вещания : PAL
Цветовое пространство : YUV
Субдискретизация насыщенности : 4:2:0
Битовая глубина : 8 бит
Тип развёртки : Чересстрочная
Порядок развёртки : Нижнее поле первое
Метод сжатия : С потерями
Бит/(Пиксели*Кадры) : 0.482
Размер потока : 768 Мбайт (75%)

Аудио
Идентификатор : 189 (0xBD)-160 (0xA0)
Формат : PCM
Параметр Endianness формата : Big
Параметр Sign формата : Signed
Режим смешивания : DVD-Video
Продолжительность : 21 м.
Вид битрейта : Постоянный
Битрейт : 1536 Кбит/сек
Каналы : 2 канала
Частота : 48,0 КГц
Битовая глубина : 16 бит
Задержка видео : -558 мс.
Размер потока : 236 Мбайт (23%)

Меню

Общее
Полное имя : C:\На раздаче\Православный Пушкин 2013 РУ DVD-5\VIDEO_TS\VTS_01_3.VOB
Формат : MPEG-PS
Размер файла : 893 Мбайт
Продолжительность : 18 м.
Режим общего битрейта : Переменный
Общий поток : 6643 Кбит/сек

Видео
Идентификатор : 224 (0xE0)
Формат : MPEG Video
Версия формата : Version 2
Профиль формата : Main@Main
Параметр BVOP формата : Да
Параметр матрицы формата : По умолчанию
Параметр GOP формата : M=3, N=12
Продолжительность : 18 м.
Вид битрейта : Переменный
Битрейт : 4975 Кбит/сек
Максимальный битрейт : 7000 Кбит/сек
Ширина : 720 пикселей
Высота : 576 пикселей
Соотношение сторон : 4:3
Частота кадров : 25,000 кадров/сек
Стандарт вещания : PAL
Цветовое пространство : YUV
Субдискретизация насыщенности : 4:2:0
Битовая глубина : 8 бит
Тип развёртки : Чересстрочная
Порядок развёртки : Нижнее поле первое
Метод сжатия : С потерями
Бит/(Пиксели*Кадры) : 0.480
Временной код первого кадра : 00:42:48:56
Оригинал временного кода : Group of pictures header
Размер потока : 669 Мбайт (75%)

Аудио
Идентификатор : 189 (0xBD)-160 (0xA0)
Формат : PCM
Параметр Endianness формата : Big
Параметр Sign формата : Signed
Режим смешивания : DVD-Video
Продолжительность : 18 м.
Вид битрейта : Постоянный
Битрейт : 1536 Кбит/сек
Каналы : 2 канала
Частота : 48,0 КГц
Битовая глубина : 16 бит
Задержка видео : -748 мс.
Размер потока : 206 Мбайт (23%)

Меню
DVDinfo
Title: Православный Пушкин 2013 РУ DVD-5
Size: 3.08 Gb ( 3 227 596,00 KBytes ) - DVD-5
Enabled regions: 1, 2, 3, 4, 5, 6, 7, 8

VTS_01 :
Play Length: 01:01:41
Video: PAL 4:3 (720x576) VBR
Audio:
Not specified (LinearPCM, 2 ch)

* Menus Information *

VIDEO_TS Menu
Video:
PAL 4:3 (720x576) VBR
Audio:
Not specified (LinearPCM, 2 ch)
Language Unit :
Title Menu

VTS_01 Menu
Video:
NTSC 4:3 (720x480) VBR
Auto Pan&Scan, Auto Letterboxed
Language Unit :
Root Menu
pic
Download

Войдите на сайт, чтобы увидеть полную информацию.

Как скачивать  ·   Правила трекера



Последний раз редактировалось: stepan-frunze (2014-06-20 01:01), всего редактировалось 4 раз(а)
[Профиль]  [ЛС] 

andrejpushkaryov

Модератор

Стаж: 10 лет

Сообщений: 1054

Откуда: Ижевск

Russia

post 14-Янв-2014 08:49 (спустя 7 часов)

[Цитировать] 

Тоже самое , что и здесь
[Профиль]  [ЛС] 

hadgra

Стаж: 8 лет 10 месяцев

Сообщений: 179

post 14-Янв-2014 12:58 (спустя 4 часа)

[Цитировать] 

ВНИМАНИЕ! Эта цензурированная (резаная) раздача взята с рутрекера у sovsem-neduhoven.

О чем сам "цензор" пишет так, прикрываясь вроде как благими намерениями :

"Это ознакомительная версия фильма, короче оригинальной примерно на минуту. Также отсутствует рекламный ролик студии".
[Профиль]  [ЛС] 

stepan-frunze

Стаж: 10 лет

Сообщений: 2563

Russia

post 14-Янв-2014 21:21 (спустя 8 часов)

[Цитировать] 

aa


Последний раз редактировалось: stepan-frunze (2014-10-26 08:57), всего редактировалось 1 раз
[Профиль]  [ЛС] 

Academic Crack

Администратор

Стаж: 11 лет

Сообщений: 2082

Russia

post 15-Янв-2014 01:14 (спустя 3 часа)

[Цитировать] 

Да, но туда ее тоже перелили с рутрекера.Точно так же, как и моя вчерашняя раздача сегодня разошлась по двум сторонним трекерам. Я, в общем-то, прекрасно понимаю мотивы саморежиссуры у sovsem-neduhoven, поэтому могу сразу сказать, что такие раздачи здесь будут отправляться в архив. Релизеру могу сказать, что сочувствую, потому что порой привыкаешь доверять людям и думаешь, что они тоже раздают оригиналы, но так бывает не всегда, к большому сожалению.

_________________
pic
pic 100 Мбит/с, pic 100 Мбит/с.
Исправили раздачу? Пишите в личку со ссылкой на раздачу.
[Профиль]  [ЛС] 

karmen1977

Стаж: 9 лет 4 месяца

Сообщений: 69

Откуда: Нижний Новгород

Russia

post 15-Янв-2014 12:59 (спустя 11 часов)

[Цитировать] 

Спаси Господи!

_________________
Христос Воскресе!
[Профиль]  [ЛС] 

stepan-frunze

Стаж: 10 лет

Сообщений: 2563

Russia

post 16-Янв-2014 00:06 (спустя 11 часов)

[Цитировать] 

Academic Crack писал(а):

Да, но туда ее тоже перелили с рутрекера.Точно так же, как и моя вчерашняя раздача сегодня разошлась по двум сторонним трекерам. Я, в общем-то, прекрасно понимаю мотивы саморежиссуры у sovsem-neduhoven, поэтому могу сразу сказать, что такие раздачи здесь будут отправляться в архив. Релизеру могу сказать, что сочувствую, потому что порой привыкаешь доверять людям и думаешь, что они тоже раздают оригиналы, но так бывает не всегда, к большому сожалению.
Мне например непонятен мотив кромсания. В архив так в архив. Будем ждать непорезанный Thank you
[Профиль]  [ЛС] 

stepan-frunze

Стаж: 10 лет

Сообщений: 2563

Russia

post 21-Апр-2014 00:17 (спустя 3 месяца 5 дней)

[Цитировать] 

pic
[Профиль]  [ЛС] 
Показать сообщения:    
Ответить на тему

Текущее время: 20-Янв 01:20

Часовой пояс: GMT + 4



Вы не можете начинать темы
Вы не можете отвечать на сообщения
Вы не можете редактировать свои сообщения
Вы не можете удалять свои сообщения
Вы не можете голосовать в опросах
Вы не можете прикреплять файлы к сообщениям
Вы не можете скачивать файлы