Loading...
Error

(Церковная музыка и церковные хоры (lossless).) "Благослови душе моя Господа". (Братский хор Задонского Рождество-Богородицкого монастыря) - 2010, APE (image + .cue), lossless

Ответить на тему
Статистика раздачи
Скачали: [ 15 ]
   
 
Автор Сообщение

СЕРГУЛЕТ

Стаж: 8 лет

Сообщений: 2639

Откуда: LA ROMANA

Dominicanrep

post 16-Дек-2011 21:23

[Цитировать] 

"Благослови душе моя Господа". (Братский хор Задонского Рождество-Богородицкого монастыря)

pic
Страна: Россия. Задонский Рождество-Богородицкий мужской монастырь.
Жанр: Церковная музыка и церковные хоры (lossless).
Год выпуска: 2010
Формат: APE (image + .cue)
Битрейт аудио: lossless
Продолжительность: 00:43:20
Содержание+Обложки
picpic
EAC log
Exact Audio Copy V1.0 beta 2 from 29. April 2011

Отчёт EAC об извлечении, выполненном 16. декабря 2011, 14:05

Хор Задонского монастыря / Благослови деше моя Господа

Дисковод: ASUS DRW-2014L1T Adapter: 2 ID: 1

Режим чтения : Достоверность
Использование точного потока : Да
Отключение кэша аудио : Да
Использование указателей C2 : Нет

Коррекция смещения при чтении : 6
Способность читать области Lead-in и Lead-out : Нет
Заполнение пропущенных сэмплов тишиной : Да
Удаление блоков с тишиной в начале и конце : Нет
При вычислениях CRC использовались нулевые сэмплы : Да
Интерфейс : Встроенный Win32-интерфейс для Win NT/2000

Выходной формат : Внутренние WAV-операции
Формат сэмплов : 44.100 Гц; 16 бит; стерео

TOC извлечённого CD

Трек | Старт | Длительность | Начальный сектор | Конечный сектор
---------------------------------------------------------------------
1 | 0:00.00 | 3:34.47 | 0 | 16096
2 | 3:34.47 | 1:49.20 | 16097 | 24291
3 | 5:23.67 | 1:52.28 | 24292 | 32719
4 | 7:16.20 | 2:09.18 | 32720 | 42412
5 | 9:25.38 | 2:10.15 | 42413 | 52177
6 | 11:35.53 | 1:08.04 | 52178 | 57281
7 | 12:43.57 | 2:14.26 | 57282 | 67357
8 | 14:58.08 | 1:03.36 | 67358 | 72118
9 | 16:01.44 | 3:44.01 | 72119 | 88919
10 | 19:45.45 | 5:25.00 | 88920 | 113294
11 | 25:10.45 | 5:50.52 | 113295 | 139596
12 | 31:01.22 | 2:43.72 | 139597 | 151893
13 | 33:45.19 | 3:05.06 | 151894 | 165774
14 | 36:50.25 | 1:25.40 | 165775 | 172189
15 | 38:15.65 | 5:05.11 | 172190 | 195075

Характеристики диапазона извлечения и сообщения об ошибках

Выбранный диапазон

Имя файла C:\Хор Задонского монастыря - Благослови деше моя Господа.wav

Пиковый уровень 55.9 %
Скорость извлечения 7.6 X
Качество диапазона 100.0 %
CRC копии 5E90CB68
Копирование... OK

Ошибок не произошло

Конец отчёта

==== Контрольная сумма отчёта E76FBEDC38F3409B6A3D0B524888F88FBFE6FAB5B73C601006DFE8E3419F713E ====
Download

Войдите для скачивания торрент-файла

Как скачивать  ·   Правила трекера

[Профиль]  [ЛС] 

Странник1

Стаж: 7 лет 2 месяца

Сообщений: 2308

Russia

post 16-Мар-2012 15:44 (спустя 2 месяца 30 дней)

[Цитировать] 

Спасибо!
[Профиль]  [ЛС] 

нйколай

Стаж: 6 лет

Сообщений: 9

Russia

post 09-Янв-2013 14:36 (спустя 9 месяцев)

[Цитировать] 

спасибо
[Профиль]  [ЛС] 

Alex Sag

Стаж: 7 лет 8 месяцев

Сообщений: 270

Kazakhstan

post 08-Апр-2014 07:31 (спустя 1 год 2 месяца)

[Цитировать] 

Благодарю!

_________________
Alexey
[Профиль]  [ЛС] 

нйколай

Стаж: 6 лет

Сообщений: 9

Russia

post 08-Апр-2014 18:09 (спустя 10 часов)

[Цитировать] 

спасибо!
[Профиль]  [ЛС] 

саша3

Стаж: 1 год 10 месяцев

Сообщений: 13

post 01-Май-2015 12:42 (спустя 1 год)

[Цитировать] 

Спасибо!
[Профиль]  [ЛС] 
Показать сообщения:    
Ответить на тему

Текущее время: 20-Фев 03:13

Часовой пояс: GMT + 4



Вы не можете начинать темы
Вы не можете отвечать на сообщения
Вы не можете редактировать свои сообщения
Вы не можете удалять свои сообщения
Вы не можете голосовать в опросах
Вы не можете прикреплять файлы к сообщениям
Вы не можете скачивать файлы