Loading...
Error

(Церковная музыка и церковные хоры (lossless).) "Блажен муж ижн не иде на совет нечестивых". Праздничный хор Свято-Успенского мужского монастыря. Саровская пустынь. - 2007, APE (image + .cue), lossless

Ответить на тему
Статистика раздачи
Скачали: [ 23 ]
   
 
Автор Сообщение

СЕРГУЛЕТ

Стаж: 8 лет

Сообщений: 2639

Откуда: LA ROMANA

Dominicanrep

post 25-Апр-2011 09:55

[Цитировать] 

"Блажен муж ижн не иде на совет нечестивых". Праздничный хор Свято-Успенского мужского монастыря. Саровская пустынь.

pic
Страна: Россия. Свято-Успенский мужской монастырь. Саровская пустынь.
Жанр: Церковная музыка и церковные хоры (lossless).
Год выпуска: 2007
Формат: APE (image + .cue)
Битрейт аудио: lossless
Продолжительность: 01:03:36
Содержание+ Обложки
picpic
EAC log
Exact Audio Copy V1.0 beta 1 from 15. November 2010

Отчёт EAC об извлечении, выполненном 23. апреля 2011, 16:01

Хор Саровской пустыни / Блажен муж иже не иде на совет нечестивых

Дисковод: HL-DT-STDVDRAM GE20NU10 Adapter: 5 ID: 0

Режим чтения : Достоверность
Использование точного потока : Да
Отключение кэша аудио : Да
Использование указателей C2 : Нет

Коррекция смещения при чтении : 667
Способность читать области Lead-in и Lead-out : Нет
Заполнение пропущенных сэмплов тишиной : Да
Удаление блоков с тишиной в начале и конце : Нет
При вычислениях CRC использовались нулевые сэмплы : Да
Интерфейс : Встроенный Win32-интерфейс для Win NT/2000

Выходной формат : Внутренние WAV-операции
Формат сэмплов : 44.100 Гц; 16 бит; стерео

TOC извлечённого CD

Трек | Старт | Длительность | Начальный сектор | Конечный сектор
---------------------------------------------------------------------
1 | 0:00.00 | 4:08.36 | 0 | 18635
2 | 4:08.36 | 2:19.22 | 18636 | 29082
3 | 6:27.58 | 2:24.25 | 29083 | 39907
4 | 8:52.08 | 0:44.42 | 39908 | 43249
5 | 9:36.50 | 5:20.10 | 43250 | 67259
6 | 14:56.60 | 1:11.71 | 67260 | 72655
7 | 16:08.56 | 4:44.00 | 72656 | 93955
8 | 20:52.56 | 8:36.17 | 93956 | 132672
9 | 29:28.73 | 1:36.56 | 132673 | 139928
10 | 31:05.54 | 4:06.29 | 139929 | 158407
11 | 35:12.08 | 1:31.54 | 158408 | 165286
12 | 36:43.62 | 4:00.37 | 165287 | 183323
13 | 40:44.24 | 2:24.60 | 183324 | 194183
14 | 43:09.09 | 2:39.00 | 194184 | 206108
15 | 45:48.09 | 3:17.18 | 206109 | 220901
16 | 49:05.27 | 5:08.25 | 220902 | 244026
17 | 54:13.52 | 5:50.45 | 244027 | 270321
18 | 60:04.22 | 3:32.66 | 270322 | 286287

Характеристики диапазона извлечения и сообщения об ошибках

Выбранный диапазон

Имя файла C:\Users\Ирина\Desktop\Хор Саровской пустыни - Блажен муж иже не иде на совет нечестивых.wav

Пиковый уровень 87.0 %
Скорость извлечения 0.4 X
Качество диапазона 100.0 %
CRC копии 560908E6
Копирование... OK

Ошибок не произошло

Конец отчёта
Download

Войдите для скачивания торрент-файла

Как скачивать  ·   Правила трекера

[Профиль]  [ЛС] 

Архимандрит Спиридон

Стаж: 5 лет 2 месяца

Сообщений: 12

Ukraine

post 14-Авг-2012 18:58 (спустя 1 год 3 месяца)

[Цитировать] 

Хочу сердечно поблагодарить за выложенную запись. Слушаю и наслаждаюсь. Прекрасный хор, очень по-церковному воспринимающий свою работу регент. Я так рад, что ещё есть праздничные (иначе правые, архиерейские) хоры, которые бережно относятся к поемому слову, к своему участию в службе как молитвенной единице, а не клоунско-шоуменскому обрамлению. Низкий Вам поклон и огромная сердечная благодарность! Ваш труд и так благословлён Богом, пусть же с ним пребывает Божия благодать всегда.
Хочу всем настоятельно порекомендовать эту запись - как регент с 25-летним (почти) стажем. Послушайте - вот так должен петь церковный хор. Как в отношении громкости, так и темпа, и сдержанности, и гармонии между мелодией и словом. Скачайте - не пожалеете.
[Профиль]  [ЛС] 

Владимир Лухов

Стаж: 6 лет 5 месяцев

Сообщений: 108

Откуда: Саратов

Russia

post 28-Авг-2012 21:50 (спустя 14 дней)

[Цитировать] 

спасибо.

_________________
С уважением. Владимир.
[Профиль]  [ЛС] 

Владимир Лухов

Стаж: 6 лет 5 месяцев

Сообщений: 108

Откуда: Саратов

Russia

post 28-Авг-2012 22:00 (спустя 9 минут)

[Цитировать] 

Скачиваю. Оч. По душе церковное песнопение.
Могу посоветовать "Спиридону" послушать "Радуйсся невесто не невестная" Саратовской семенарии.
Ангельское и жизнеутвеждающее пение.
Тяжело болела внучка, Господь привёл и мы с женой были на зтой службе.
Советую послушать.

_________________
С уважением. Владимир.
[Профиль]  [ЛС] 

Alex Sag

Стаж: 7 лет 9 месяцев

Сообщений: 270

Kazakhstan

post 08-Апр-2014 07:38 (спустя 1 год 7 месяцев)

[Цитировать] 

Спаси Господи!

_________________
Alexey
[Профиль]  [ЛС] 

Nathan

Стаж: 7 лет 3 месяца

Сообщений: 16

Ussr

post 20-Сен-2016 20:33 (спустя 2 года 5 месяцев)

[Цитировать] 

спаси Бог
[Профиль]  [ЛС] 
Показать сообщения:    
Ответить на тему

Текущее время: 28-Фев 07:05

Часовой пояс: GMT + 4



Вы не можете начинать темы
Вы не можете отвечать на сообщения
Вы не можете редактировать свои сообщения
Вы не можете удалять свои сообщения
Вы не можете голосовать в опросах
Вы не можете прикреплять файлы к сообщениям
Вы не можете скачивать файлы