Loading...
Error

(Церковная музыка и церковные хоры (lossless)) Агрипния (всенощное бдение) на Афоне. Праздник св. пророка Иоанна Предтечи (утреня). - 2006, APE (image + .cue), lossless

Ответить на тему
Статистика раздачи
   
 
Автор Сообщение

СЕРГУЛЕТ

Стаж: 8 лет 9 месяцев

Сообщений: 2640

Откуда: LA ROMANA

Dominicanrep

post 20-Ноя-2009 13:53

[Цитировать] 

Агрипния (всенощное бдение) на Афоне. Праздник св. пророка Иоанна Предтечи (утреня).

pic
Страна: Греция.
Жанр: Церковная музыка и церковные хоры (lossless)
Год выпуска: 2006
Формат: APE (image + .cue)
Битрейт аудио: lossless
Продолжительность: 01:03:06
Содержание+Обложки
picpic
Монастырь св. Дионисия, Афон. Поёт хор отцов-святогорцев. Живая запись.
EAC log
Exact Audio Copy V0.99 prebeta 5 from 4. May 2009

Отчёт EAC об извлечении, выполненном 20. ноября 2009, 0:56

Поёт хор отцов-святогорцев / Праздник св. пророка Иоанна Предтечи ( утреня )

Дисковод: ASUS BC-1205PT Adapter: 1 ID: 0

Режим чтения : Достоверность
Использование точного потока : Да
Отключение кэша аудио : Да
Использование указателей C2 : Нет

Коррекция смещения при чтении : 667
Способность читать области Lead-in и Lead-out : Нет
Заполнение пропущенных сэмплов тишиной : Да
Удаление блоков с тишиной в начале и конце : Нет
При вычислениях CRC использовались нулевые сэмплы : Да
Интерфейс : Встроенный Win32-интерфейс для Win NT/2000

Выходной формат : Внутренние WAV-операции
Формат сэмплов : 44.100 Гц; 16 бит; стерео

TOC извлечённого CD

Трек | Старт | Длительность | Начальный сектор | Конечный сектор
---------------------------------------------------------------------
1 | 0:00.00 | 1:18.00 | 0 | 5849
2 | 1:18.00 | 1:01.00 | 5850 | 10424
3 | 2:19.00 | 2:15.00 | 10425 | 20549
4 | 4:34.00 | 0:27.00 | 20550 | 22574
5 | 5:01.00 | 6:37.00 | 22575 | 52349
6 | 11:38.00 | 1:35.00 | 52350 | 59474
7 | 13:13.00 | 2:36.00 | 59475 | 71174
8 | 15:49.00 | 1:40.00 | 71175 | 78674
9 | 17:29.00 | 2:24.00 | 78675 | 89474
10 | 19:53.00 | 2:50.00 | 89475 | 102224
11 | 22:43.00 | 9:00.00 | 102225 | 142724
12 | 31:43.00 | 19:45.00 | 142725 | 231599
13 | 51:28.00 | 3:43.00 | 231600 | 248324
14 | 55:11.00 | 1:55.00 | 248325 | 256949
15 | 57:06.00 | 5:58.00 | 256950 | 283799

Характеристики диапазона извлечения и сообщения об ошибках

Выбранный диапазон

Имя файла C:\Поёт хор отцов-святогорцев - Праздник св. пророка Иоанна Предтечи ( утреня ).wav

Пиковый уровень 90.2 %
Качество диапазона 100.0 %
CRC копии AEF2F556
Копирование... OK

Ошибок не произошло
Download

Войдите на сайт, чтобы увидеть полную информацию.

Как скачивать  ·   Правила трекера

[Профиль]  [ЛС] 

GROTESK

Стаж: 8 лет 6 месяцев

Сообщений: 78

Откуда: Краснодон

Ukraine

post 11-Сен-2011 10:02 (спустя 1 год 9 месяцев)

[Цитировать] 

Спасибо !
[Профиль]  [ЛС] 

topol

Стаж: 5 лет 11 месяцев

Сообщений: 3

Ukraine

post 30-Ноя-2011 18:04 (спустя 2 месяца 19 дней)

[Цитировать] 

Благодарю
[Профиль]  [ЛС] 

1976 1978

Стаж: 5 лет 6 месяцев

Сообщений: 3

Russia

post 22-Фев-2013 16:52 (спустя 1 год 2 месяца)

[Цитировать] 

Спасибо,но крайне низкое качество записи.Наверное подобная запись может представлять интерес для тех, кто лично побывал в этом монастыре,видел службу воочию.Понимаю все трудности подобной работы,но тем не менее....
[Профиль]  [ЛС] 

Alex Sag

Стаж: 8 лет 5 месяцев

Сообщений: 281

Kazakhstan

post 08-Апр-2014 07:00 (спустя 1 год 1 месяц)

[Цитировать] 

Спаси Господи! Благодарю!

_________________
Alexey
[Профиль]  [ЛС] 

nonono

Стаж: 2 года 9 месяцев

Сообщений: 9

post 14-Янв-2016 16:41 (спустя 1 год 9 месяцев)

[Цитировать] 

нету раздающих(
[Профиль]  [ЛС] 
Показать сообщения:    
Ответить на тему

Текущее время: 19-Ноя 19:43

Часовой пояс: GMT + 4



Вы не можете начинать темы
Вы не можете отвечать на сообщения
Вы не можете редактировать свои сообщения
Вы не можете удалять свои сообщения
Вы не можете голосовать в опросах
Вы не можете прикреплять файлы к сообщениям
Вы не можете скачивать файлы