Loading...
Error

(Церковная музыка и церковные хоры (lossless)) "Преподобная Евфросиние, славна память твоя". Хор Спасо-Евфросиниевского женского монастыря. - 1997, APE (image + .cue), lossless

Ответить на тему
Статистика раздачи
   
 
Автор Сообщение

СЕРГУЛЕТ

Стаж: 8 лет 10 месяцев

Сообщений: 2641

Откуда: LA ROMANA

Dominicanrep

post 05-Июл-2011 11:39

[Цитировать] 

"Преподобная Евфросиние, славна память твоя". Хор Спасо-Евфросиниевского женского монастыря.

pic
Страна: Беларусь
Жанр: Церковная музыка и церковные хоры (lossless)
Год выпуска: 1997
Формат: APE (image + .cue)
Битрейт аудио: lossless
Продолжительность: 01:02:00
Трэклист:
01.Благовест
02.Благослови, душе моя, Господа
03.Стихиры прп.Евфросинии
04.Стихиры прп.Евфросинии
05.Свете Тихий
06.Стихиры на литии прп.Евфросинии
07.Стихиры на стиховне прп.Евфросинии
08.Стихиры на стиховне прп.Евфросинии
09.Стихиры на стиховне прп.Евфросинии
10.Бог Господь
11.Тропарь прп.Евфросинии
12.Избранную Христову невесту
13.О всехвальная мати Евфросиния
14.Хвалите Имя Господне
15.Величание прп.Евфросинии
16.Седален прп.Евфросинии
17.Прокимен
18.-22.Ирмосы канона 1,3,8,9
23.Светилен
24.Преблагословенна еси Богородица Дево
25.Тропарь Преображению Господню
26.Величание Преображению Господню
27.Седалены на Преображение Господне
28.Всяческая днесь радости исполнишася
29.Свете Неизменный, Слове
30.-32.Стихиры на воззвах на Воздвижение Креста
33.-35.Стихиры на стиховне на Воздвижение Креста
36.Спаси Господи люди Твоя
37.Крест хранитель
38.Кресту Твоему
39.Взбранной Воеводе
40.О Всепетая Мати
41.Величание Покрову
42.О Пресвятая Госпоже
43.Под Твою милость
44.Благовест трезвон
EAC log
Exact Audio Copy V0.99 prebeta 4 from 23. January 2008

Отчёт EAC об извлечении, выполненном 19. августа 2010, 23:14

Хор Спасо-Евфросиниевского женского монастыря / Преподобная Евфросиние, славна память твоя

Дисковод: HL-DT-STDVDRAM GSA-H62N Adapter: 1 ID: 1

Режим чтения : Достоверность
Использование точного потока : Да
Отключение кэша аудио : Нет
Использование указателей C2 : Нет

Коррекция смещения при чтении : 667
Способность читать области Lead-in и Lead-out : Нет
Заполнение пропущенных сэмплов тишиной : Да
Удаление блоков с тишиной в начале и конце : Нет
При вычислениях CRC использовались нулевые сэмплы : Нет
Интерфейс : Встроенный Win32-интерфейс для Win NT/2000

Выходной формат : Внутренние WAV-операции
Формат сэмплов : 44.100 Гц; 16 бит; стерео

TOC извлечённого CD

Трек | Старт | Длительность | Начальный сектор | Конечный сектор
---------------------------------------------------------------------
1 | 0:00.00 | 1:04.72 | 0 | 4871
2 | 1:04.72 | 3:26.65 | 4872 | 20386
3 | 4:31.62 | 0:48.06 | 20387 | 23992
4 | 5:19.68 | 1:39.66 | 23993 | 31483
5 | 6:59.59 | 2:46.60 | 31484 | 43993
6 | 9:46.44 | 2:05.54 | 43994 | 53422
7 | 11:52.23 | 0:50.12 | 53423 | 57184
8 | 12:42.35 | 1:10.27 | 57185 | 62461
9 | 13:52.62 | 0:56.00 | 62462 | 66661
10 | 14:48.62 | 0:19.62 | 66662 | 68148
11 | 15:08.49 | 1:35.68 | 68149 | 75341
12 | 16:44.42 | 1:46.01 | 75342 | 83292
13 | 18:30.43 | 1:33.08 | 83293 | 90275
14 | 20:03.51 | 2:00.63 | 90276 | 99338
15 | 22:04.39 | 1:18.22 | 99339 | 105210
16 | 23:22.61 | 2:08.32 | 105211 | 114842
17 | 25:31.18 | 0:24.17 | 114843 | 116659
18 | 25:55.35 | 0:34.42 | 116660 | 119251
19 | 26:30.02 | 0:35.72 | 119252 | 121948
20 | 27:05.74 | 0:20.29 | 121949 | 123477
21 | 27:26.28 | 0:52.54 | 123478 | 127431
22 | 28:19.07 | 0:55.70 | 127432 | 131626
23 | 29:15.02 | 1:23.22 | 131627 | 137873
24 | 30:38.24 | 1:16.33 | 137874 | 143606
25 | 31:54.57 | 1:29.25 | 143607 | 150306
26 | 33:24.07 | 1:02.61 | 150307 | 155017
27 | 34:26.68 | 3:15.72 | 155018 | 169714
28 | 37:42.65 | 0:44.31 | 169715 | 173045
29 | 38:27.21 | 1:30.52 | 173046 | 179847
30 | 39:57.73 | 1:11.16 | 179848 | 185188
31 | 41:09.14 | 1:20.12 | 185189 | 191200
32 | 42:29.26 | 1:21.52 | 191201 | 197327
33 | 43:51.03 | 1:33.54 | 197328 | 204356
34 | 45:24.57 | 1:29.55 | 204357 | 211086
35 | 46:54.37 | 1:27.57 | 211087 | 217668
36 | 48:22.19 | 1:04.20 | 217669 | 222488
37 | 49:26.39 | 1:46.21 | 222489 | 230459
38 | 51:12.60 | 0:47.25 | 230460 | 234009
39 | 52:00.10 | 1:58.05 | 234010 | 242864
40 | 53:58.15 | 3:10.68 | 242865 | 257182
41 | 57:09.08 | 1:07.28 | 257183 | 262235
42 | 58:16.36 | 1:25.48 | 262236 | 268658
43 | 59:42.09 | 1:29.52 | 268659 | 275385
44 | 61:11.61 | 1:37.64 | 275386 | 282724

Характеристики диапазона извлечения и сообщения об ошибках

Выбранный диапазон

Имя файла D:\Аудио\Хор Спасо Евфросиниевского женского монастыря\Хор Спасо-Евфросиниевского женского монастыря - Преподобная Евфросиние, славна память твоя.wav

Подозрительная позиция 1:02:30 - 1:02:31
Подозрительная позиция 1:02:43

Пиковый уровень 85.5 %
Качество диапазона 99.9 %
CRC копии 6D8512ED
Копирование завершено

Были ошибки

AccurateRip: сводка
Трек 1 нет в базе данных
Трек 2 нет в базе данных
Трек 3 нет в базе данных
Трек 4 нет в базе данных
Трек 5 нет в базе данных
Трек 6 нет в базе данных
Трек 7 нет в базе данных
Трек 8 нет в базе данных
Трек 9 нет в базе данных
Трек 10 нет в базе данных
Трек 11 нет в базе данных
Трек 12 нет в базе данных
Трек 13 нет в базе данных
Трек 14 нет в базе данных
Трек 15 нет в базе данных
Трек 16 нет в базе данных
Трек 17 нет в базе данных
Трек 18 нет в базе данных
Трек 19 нет в базе данных
Трек 20 нет в базе данных
Трек 21 нет в базе данных
Трек 22 нет в базе данных
Трек 23 нет в базе данных
Трек 24 нет в базе данных
Трек 25 нет в базе данных
Трек 26 нет в базе данных
Трек 27 нет в базе данных
Трек 28 нет в базе данных
Трек 29 нет в базе данных
Трек 30 нет в базе данных
Трек 31 нет в базе данных
Трек 32 нет в базе данных
Трек 33 нет в базе данных
Трек 34 нет в базе данных
Трек 35 нет в базе данных
Трек 36 нет в базе данных
Трек 37 нет в базе данных
Трек 38 нет в базе данных
Трек 39 нет в базе данных
Трек 40 нет в базе данных
Трек 41 нет в базе данных
Трек 42 нет в базе данных
Трек 43 нет в базе данных
Трек 44 нет в базе данных
Ни одного трека нет в базе AccurateRip

Конец отчёта
Download

Войдите на сайт, чтобы увидеть полную информацию.

Как скачивать  ·   Правила трекера

[Профиль]  [ЛС] 

Ирина 11

Стаж: 8 лет 10 месяцев

Сообщений: 25

Russia

post 12-Авг-2012 15:39 (спустя 1 год 1 месяц)

[Цитировать] 

СЕРГУЛЕТ
Помогите скачать, спасибо. Доброе время суток
[Профиль]  [ЛС] 

cantor

Стаж: 7 лет 9 месяцев

Сообщений: 5

Russia

post 10-Окт-2017 12:32 (спустя 5 лет 1 месяц)

[Цитировать] 

помогите скачать где ссылка?
[Профиль]  [ЛС] 
Показать сообщения:    
Ответить на тему

Текущее время: 14-Дек 19:16

Часовой пояс: GMT + 4



Вы не можете начинать темы
Вы не можете отвечать на сообщения
Вы не можете редактировать свои сообщения
Вы не можете удалять свои сообщения
Вы не можете голосовать в опросах
Вы не можете прикреплять файлы к сообщениям
Вы не можете скачивать файлы