Loading...
Error

(Церковная музыка Греции, Афона и Сербии (lossless).) "Онамо, намо за брда она...". "Там, там за той горой...". Сербские патриотические песни. - 2007, APE (image + .cue), lossless

Ответить на тему
Статистика раздачи
   
 
Автор Сообщение

СЕРГУЛЕТ

Стаж: 8 лет 8 месяцев

Сообщений: 2640

Откуда: LA ROMANA

Dominicanrep

post 19-Май-2011 18:42

[Цитировать] 

"Онамо, намо за брда она...". "Там, там за той горой...". Сербские патриотические песни.

pic
Страна: Россия. Ново-Тихвинский женский монастырь.
Жанр: Церковная музыка Греции, Афона и Сербии (lossless).
Год выпуска: 2007
Формат: APE (image + .cue)
Битрейт аудио: lossless
Продолжительность: 00:59:00
Содержание+Обложки
picpic
EAC log
Exact Audio Copy V1.0 beta 1 from 15. November 2010

Отчёт EAC об извлечении, выполненном 18. мая 2011, 22:51

Ново Тихвинский монастырь / Онамо, намо, за брда она...

Дисковод: HL-DT-STDVDRAM GE20NU10 Adapter: 5 ID: 0

Режим чтения : Достоверность
Использование точного потока : Да
Отключение кэша аудио : Да
Использование указателей C2 : Нет

Коррекция смещения при чтении : 667
Способность читать области Lead-in и Lead-out : Нет
Заполнение пропущенных сэмплов тишиной : Да
Удаление блоков с тишиной в начале и конце : Нет
При вычислениях CRC использовались нулевые сэмплы : Да
Интерфейс : Встроенный Win32-интерфейс для Win NT/2000

Выходной формат : Внутренние WAV-операции
Формат сэмплов : 44.100 Гц; 16 бит; стерео

TOC извлечённого CD

Трек | Старт | Длительность | Начальный сектор | Конечный сектор
---------------------------------------------------------------------
1 | 0:00.00 | 4:57.03 | 0 | 22277
2 | 4:57.03 | 6:27.03 | 22278 | 51305
3 | 11:24.06 | 3:40.03 | 51306 | 67808
4 | 15:04.09 | 6:04.04 | 67809 | 95112
5 | 21:08.13 | 4:07.04 | 95113 | 113641
6 | 25:15.17 | 4:17.04 | 113642 | 132920
7 | 29:32.21 | 3:01.03 | 132921 | 146498
8 | 32:33.24 | 2:49.03 | 146499 | 159176
9 | 35:22.27 | 2:51.00 | 159177 | 172001
10 | 38:13.27 | 2:15.03 | 172002 | 182129
11 | 40:28.30 | 4:47.03 | 182130 | 203657
12 | 45:15.33 | 4:33.70 | 203658 | 224202
13 | 49:49.28 | 2:56.04 | 224203 | 237406
14 | 52:45.32 | 6:15.03 | 237407 | 265534

Характеристики диапазона извлечения и сообщения об ошибках

Выбранный диапазон

Имя файла C:\Users\Ирина\Desktop\Ново Тихвинский монастырь - Онамо, намо, за брда она....wav

Пиковый уровень 100.0 %
Скорость извлечения 0.8 X
Качество диапазона 99.9 %
CRC копии 328574F3
Копирование... OK

Ошибок не произошло

Конец отчёта
Дополнительная информация: Хор сестер Ново-Тихвинского женского монастыря г. Екатеринбурга.
Регент-монахиня Иудифь (Сибирякова).
Запись произведена на студии Александра Новикова "Новик-Рекордс".
Download

Войдите на сайт, чтобы увидеть полную информацию.

Как скачивать  ·   Правила трекера

[Профиль]  [ЛС] 

pravwoman

post 29-Апр-2012 15:10 (спустя 11 месяцев)

[Цитировать] 

Отличные песни!! И сестры замечательно поют! Всем рекомендую послушать! Спаси Господи!
 

RusRus

Стаж: 1 год 8 месяцев

Сообщений: 1

post 11-Фев-2016 13:16 (спустя 3 года 9 месяцев)

[Цитировать] 

Доброго Вам дня!

Эта раздача не является активной? Случайно услышал на Yщгtube и мне очень понравилось.
Можно ли приобщиться?
[Профиль]  [ЛС] 
Показать сообщения:    
Ответить на тему

Текущее время: 23-Окт 17:32

Часовой пояс: GMT + 4



Вы не можете начинать темы
Вы не можете отвечать на сообщения
Вы не можете редактировать свои сообщения
Вы не можете удалять свои сообщения
Вы не можете голосовать в опросах
Вы не можете прикреплять файлы к сообщениям
Вы не можете скачивать файлы