Loading...
Error

(Церковная музыка и церковные хоры (lossless)) "Пасха". Хор Свято-Троицкой Сергиевой Лавры. Регент архимандрит Матфей (Мормыль). - 2005, APE (image + .cue), lossless

Ответить на тему
Статистика раздачи
   
 
Автор Сообщение

СЕРГУЛЕТ

Стаж: 12 лет

Сообщений: 2637

Откуда: LA ROMANA

Dominicanrep

post 20-Апр-2011 10:45

[Цитировать] 

"Пасха". Хор Свято-Троицкой Сергиевой Лавры. Регент архимандрит Матфей (Мормыль).

pic
Страна: Россия. Троице-Сергиева Лавра.
Жанр: Церковная музыка и церковные хоры (lossless)
Год выпуска: 2005
Формат: APE (image + .cue)
Битрейт аудио: lossless
Продолжительность: 01:16:30
Треклист:
1. Лаврский пасхальный звон и
крестный ход 0.42
2. Пасхальное начало
(московский напев) 5.30
3. Пасхальный канон (московский напев,
катавасия киевского распева) 4.26
4. Кондак Пасхи
(напев Троице-Сергиевой Лавры) 2.30
5. Икос Пасхи (валаамский напев) 2.30
6. "Ангел вопияше" Н. Макаров) 2.06
7. Эксапостиларий Пасхи
(греческий распев) 2.03
8. Стихиры Пасхи
(напев Зосимовой пустыни) 5.14
9. Христос воскресе (А.Кастальский) 1.57
10. Приидите людие, триипостасному
Божеству поклонимся
(напев Троице-Сергиевой Лавры) 2.59
11. Великая ектения (А. Кастальский) 3.29
12. Догматик седьмого гласа
(знаменный распев) 2.00
13. Великий прокимен «Кто Бог великий»
(московский напев) 2.27
Содержание+Обложки
picpicpic
EAC log
Exact Audio Copy V1.0 beta 1 from 15. November 2010

Отчёт EAC об извлечении, выполненном 20. апреля 2011, 10:20

Хор ТСЛ / Пасха

Дисковод: HL-DT-STDVDRAM GE20NU10 Adapter: 5 ID: 1

Режим чтения : Достоверность
Использование точного потока : Да
Отключение кэша аудио : Да
Использование указателей C2 : Нет

Коррекция смещения при чтении : 667
Способность читать области Lead-in и Lead-out : Нет
Заполнение пропущенных сэмплов тишиной : Да
Удаление блоков с тишиной в начале и конце : Нет
При вычислениях CRC использовались нулевые сэмплы : Да
Интерфейс : Встроенный Win32-интерфейс для Win NT/2000

Выходной формат : Внутренние WAV-операции
Формат сэмплов : 44.100 Гц; 16 бит; стерео

TOC извлечённого CD

Трек | Старт | Длительность | Начальный сектор | Конечный сектор
---------------------------------------------------------------------
1 | 0:00.00 | 0:42.05 | 0 | 3154
2 | 0:42.05 | 5:30.67 | 3155 | 27971
3 | 6:12.72 | 4:26.45 | 27972 | 47966
4 | 10:39.42 | 2:30.68 | 47967 | 59284
5 | 13:10.35 | 2:30.52 | 59285 | 70586
6 | 15:41.12 | 2:06.23 | 70587 | 80059
7 | 17:47.35 | 2:03.02 | 80060 | 89286
8 | 19:50.37 | 5:14.13 | 89287 | 112849
9 | 25:04.50 | 1:57.02 | 112850 | 121626
10 | 27:01.52 | 2:59.48 | 121627 | 135099
11 | 30:01.25 | 3:29.27 | 135100 | 150801
12 | 33:30.52 | 2:00.58 | 150802 | 159859
13 | 35:31.35 | 2:27.70 | 159860 | 170954
14 | 37:59.30 | 2:18.57 | 170955 | 181361
15 | 40:18.12 | 3:09.13 | 181362 | 195549
16 | 43:27.25 | 3:07.22 | 195550 | 209596
17 | 46:34.47 | 1:51.48 | 209597 | 217969
18 | 48:26.20 | 8:34.62 | 217970 | 256581
19 | 57:01.07 | 2:57.10 | 256582 | 269866
20 | 59:58.17 | 1:48.15 | 269867 | 277981
21 | 61:46.32 | 5:41.20 | 277982 | 303576
22 | 67:27.52 | 1:48.65 | 303577 | 311741
23 | 69:16.42 | 4:41.38 | 311742 | 332854
24 | 73:58.05 | 2:32.21 | 332855 | 344275

Характеристики диапазона извлечения и сообщения об ошибках

Выбранный диапазон

Имя файла C:\Users\Ирина\Desktop\Хор ТСЛ - Пасха.wav

Пиковый уровень 81.6 %
Скорость извлечения 0.2 X
Качество диапазона 100.0 %
CRC копии 70CDEADA
Копирование... OK

Ошибок не произошло

Конец отчёта
Дополнительная информация: Запись 1997 года.
Храм Христа Спасителя.
Download

Войдите на сайт, чтобы увидеть полную информацию.

Как скачивать  ·   Правила трекера

[Профиль]  [ЛС] 

Владимир Лухов

Стаж: 10 лет

Сообщений: 110

Откуда: Саратов

Russia

post 20-Апр-2011 20:29 (спустя 9 часов)

[Цитировать] 

Спасибо!!!

_________________
С уважением. Владимир.
[Профиль]  [ЛС] 

brd_eugene

Стаж: 12 лет

Сообщений: 64

Ukraine

post 20-Апр-2011 22:18 (спустя 1 час 48 минут)

[Цитировать] 

СпасиБо!!!
[Профиль]  [ЛС] 

Игорь I

Стаж: 12 лет

Сообщений: 2052

Russia

post 21-Апр-2011 14:52 (спустя 16 часов)

[Цитировать] 

Благодарю
[Профиль]  [ЛС] 

Сноб

Стаж: 10 лет

Сообщений: 51

post 24-Апр-2011 23:36 (спустя 3 дня)

[Цитировать] 

pic          pic
[Профиль]  [ЛС] 

Иван Владимирович

Стаж: 1 год 3 месяца

Сообщений: 51

Russia

post 09-Фев-2020 12:58 (спустя 8 лет 9 месяцев)

[Цитировать] 

Ооочень прошу, откройте сиды!)))
[Профиль]  [ЛС] 

Иван Владимирович

Стаж: 1 год 3 месяца

Сообщений: 51

Russia

post 09-Фев-2020 19:51 (спустя 6 часов)

[Цитировать] 

Станьте на раздачу, пожалуйста
[Профиль]  [ЛС] 

uk9cbd

Стаж: 7 лет 2 месяца

Сообщений: 141

Russia

post 09-Окт-2020 15:53 (спустя 7 месяцев)

[Цитировать] 

Большое спасибо!

_________________
Мир всем...
[Профиль]  [ЛС] 

au362

Стаж: 1 месяц 12 дней

Сообщений: 3

post 03-Май-2021 13:10 (спустя 6 месяцев)

[Цитировать] 

Спасибо
[Профиль]  [ЛС] 
Показать сообщения:    
Ответить на тему

Текущее время: 19-Май 03:57

Часовой пояс: GMT + 4



Вы не можете начинать темы
Вы не можете отвечать на сообщения
Вы не можете редактировать свои сообщения
Вы не можете удалять свои сообщения
Вы не можете голосовать в опросах
Вы не можете прикреплять файлы к сообщениям
Вы не можете скачивать файлы