Loading...
Error

(Церковная музыка и церковные хоры (lossless).) "Тако да просветитеся...". 45 лет архиерейской хиротонии Святейшего Патриарха Алексия II. - 2006, APE (image + .cue), lossless

Ответить на тему
Статистика раздачи
no
   
 
Автор Сообщение

СЕРГУЛЕТ

Стаж: 8 лет

Сообщений: 2639

Откуда: LA ROMANA

Dominicanrep

post 04-Дек-2009 21:10

[Цитировать] 

"Тако да просветитеся...". 45 лет архиерейской хиротонии Святейшего Патриарха Алексия II.

pic
Страна: Россия. Издательский Совет РПЦ & Храм Христа Спасителя.
Жанр: Церковная музыка и церковные хоры (lossless).
Год выпуска: 2006
Формат: APE (image + .cue)
Битрейт аудио: lossless
Продолжительность: 01:11:54
Треклист:
1. Тако да просветится....03.02
А. Д. Кастальский в редакции С. Патова Соло: Протодиакон Александр Агейкин
2. Кто ны разлучит от любве Божия... 04.42 Протоиерей И. Соломин
3. Благий рабе и верный...03.00
Стихира святителю Алексию А. М. Астафьева. Канонарх: Н. Ефремов
4. Тропарь святителю Филарету...02.41
Е. Ю. Красавина
5. Величание святителю Филарету..02.30
А. В. Александров. Соло: И. Чернова
6. Спаси, Боже, люди Твоя...04.56
П. Г. Чесноков. Соло: Протодиакон Александр Агейкин
7. Величит душа моя Господа...10.32
А. К. Кьяндский. Соло: И. Гарабурина
8. Тропарь Святой Троице...01.02
Священник В. Зиновьев
9.О, преславнаго чудесе...02.06
Напев Оптиной пустыни. Глас 8
10. Приидите, взыдем на гору Господню..02.52
П. Г. Чесноков. Солисты: И. Шаров, И. Чернова
11. Апостоли от конец...03.34
Напев Киево-Печерской Лавры
12. Да исправится молитва моя.... 09.21
Протоиерей П. Турчанинов.
13. Разбойника благоразумного...02.33
Священник В. С. Никольский.
14. Совлекоша с Мене ризв Моя....02.49
Стихиры Великого Пятка. Священник В. Зиновьев
15. Ангел вопияше....03.37
П. Г. Чесноков. Соло: И. Тарабурина
16. Просительная ектения...05.41
П. Г. Чесноков. Соло: Протодиакон Александр Агейкин.
Возглас: Протоиерей Михаил Рязанцев
17. Отче наш..02.31
Н.Н.Седров-отец
18. Утверди Боже...01.57
Священник А. Косолапое. Соло: Протодиакон Александр Агейкин
19. Многолетие...02.20
А. Д. Кастальский в ред. Н. В. Матвеева. Соло; Протодиакон Александр Агейкин
Обложка+Содержание
pic
EAC log
Exact Audio Copy V0.99 prebeta 5 from 4. May 2009

Отчёт EAC об извлечении, выполненном 4. декабря 2009, 17:06

Хор Христа Спасителя / Тако да просветитеся

Дисковод: ASUS BC-1205PT Adapter: 1 ID: 0

Режим чтения : Достоверность
Использование точного потока : Да
Отключение кэша аудио : Да
Использование указателей C2 : Нет

Коррекция смещения при чтении : 667
Способность читать области Lead-in и Lead-out : Нет
Заполнение пропущенных сэмплов тишиной : Да
Удаление блоков с тишиной в начале и конце : Нет
При вычислениях CRC использовались нулевые сэмплы : Да
Интерфейс : Встроенный Win32-интерфейс для Win NT/2000

Выходной формат : Внутренние WAV-операции
Формат сэмплов : 44.100 Гц; 16 бит; стерео

TOC извлечённого CD

Трек | Старт | Длительность | Начальный сектор | Конечный сектор
---------------------------------------------------------------------
1 | 0:00.00 | 3:02.04 | 0 | 13653
2 | 3:02.04 | 4:42.00 | 13654 | 34803
3 | 7:44.04 | 3:00.11 | 34804 | 48314
4 | 10:44.15 | 2:41.04 | 48315 | 60393
5 | 13:25.19 | 2:30.68 | 60394 | 71711
6 | 15:56.12 | 4:56.61 | 71712 | 93972
7 | 20:52.73 | 10:32.63 | 93973 | 141435
8 | 31:25.61 | 1:02.15 | 141436 | 146100
9 | 32:28.01 | 2:06.28 | 146101 | 155578
10 | 34:34.29 | 2:53.00 | 155579 | 168553
11 | 37:27.29 | 3:34.42 | 168554 | 184645
12 | 41:01.71 | 9:21.40 | 184646 | 226760
13 | 50:23.36 | 2:33.29 | 226761 | 238264
14 | 52:56.65 | 2:49.10 | 238265 | 250949
15 | 55:46.00 | 3:37.11 | 250950 | 267235
16 | 59:23.11 | 5:41.53 | 267236 | 292863
17 | 65:04.64 | 2:31.57 | 292864 | 304245
18 | 67:36.46 | 1:57.14 | 304246 | 313034
19 | 69:33.60 | 2:20.38 | 313035 | 323572

Характеристики диапазона извлечения и сообщения об ошибках

Выбранный диапазон

Имя файла C:\Хор Христа Спасителя - Тако да просветитеся.wav

Пиковый уровень 99.5 %
Качество диапазона 100.0 %
CRC копии D52D2A70
Копирование... OK

Ошибок не произошло

AccurateRip: сводка
Трек 1 нет в базе данных
Трек 2 нет в базе данных
Трек 3 нет в базе данных
Трек 4 нет в базе данных
Трек 5 нет в базе данных
Трек 6 нет в базе данных
Трек 7 нет в базе данных
Трек 8 нет в базе данных
Трек 9 нет в базе данных
Трек 10 нет в базе данных
Трек 11 нет в базе данных
Трек 12 нет в базе данных
Трек 13 нет в базе данных
Трек 14 нет в базе данных
Трек 15 нет в базе данных
Трек 16 нет в базе данных
Трек 17 нет в базе данных
Трек 18 нет в базе данных
Трек 19 нет в базе данных
Ни одного трека нет в базе AccurateRip

Конец отчёта
Дополнительная информация: Запись произведена в июне 2006 года в Храме Христа Спасителя.
Хор Храма Христа Спасителя под управлением регента Сергея Кривобокова. (1-10, 12, 14-19).
Протодиакон Александр Агейкин, диакон Николай Филатов, диакон Дионисий Пряхин, под управлением протодиакона Андрея Марущака (11-13).
Download

Войдите для скачивания торрент-файла

Как скачивать  ·   Правила трекера

[Профиль]  [ЛС] 

ftpuser2008

Стаж: 6 лет 3 месяца

Сообщений: 1

post 29-Ноя-2010 17:07 (спустя 11 месяцев)

[Цитировать] 

Огромное спасибо! Давно ждал-искал и надеялся, что все-таки скачается!
[Профиль]  [ЛС] 

NeuroblasT

Стаж: 1 год 2 месяца

Сообщений: 1

post 19-Дек-2015 18:55 (спустя 5 лет)

[Цитировать] 

Кто-нибудь есть тут, на раздаче?
Или поезд ушел?
[Профиль]  [ЛС] 
Показать сообщения:    
Ответить на тему

Текущее время: 27-Фев 12:57

Часовой пояс: GMT + 4



Вы не можете начинать темы
Вы не можете отвечать на сообщения
Вы не можете редактировать свои сообщения
Вы не можете удалять свои сообщения
Вы не можете голосовать в опросах
Вы не можете прикреплять файлы к сообщениям
Вы не можете скачивать файлы