Loading...
Error

(Церковная музыка и церковные хоры (lossless).) Церковные хоры Русского Зарубежья. Хор Свято-Александро Невского собора в Париже п/у Евгения Евца. - 2009, APE (image + .cue), lossless

Ответить на тему
Статистика раздачи
   
 
Автор Сообщение

СЕРГУЛЕТ

Стаж: 8 лет 8 месяцев

Сообщений: 2640

Откуда: LA ROMANA

Dominicanrep

post 21-Ноя-2009 15:18

[Цитировать] 

Церковные хоры Русского Зарубежья. Хор Свято-Александро Невского собора в Париже п/у Евгения Евца.

pic
Страна: Россия. Издательство Саратовской Епархии.
Жанр: Церковная музыка и церковные хоры (lossless).
Год выпуска: 2009
Формат: APE (image + .cue)
Битрейт аудио: lossless
Продолжительность: 00:55:00
Треклист:
1. «Хвалите имя Господне» 3.29
2. «Не отврати лица Твоего» 3.41
3. «Предстоящи Кресту» 2.28
4. «Дева днесь» 2.39
5. «Достойно есть» 2.15
6. «Святый Боже» 1.52
7. «Милосердия двери» 2.53
8. «Единородный Сыне» 2.27
9. «Милосердия двери» 3.05
10. «Отче наш» 2.14
11. «Во Царствии Твоем» 3.38
12. «Ныне отпущаеши» 2.12
13. «Собезначальный и Соприсносущный Сын» 1.51
14. «Свете Тихий» 2.08
15. «Херувимская» 4.22
16. «Заступнице усердная» 3.43
17. «Чертог Твой» 2.12
18. «Достойно есть» 2.16
19. «Плен Сионь» 2.19
20. «Взбранной Воеводе» 1.42
21. «Ученик отвержеся» 1.34
Содержание+Обложки
picpic
Записи 1967 и 1975 годов.
EAC log
Exact Audio Copy V0.99 prebeta 5 from 4. May 2009

Отчёт EAC об извлечении, выполненном 20. ноября 2009, 19:15

Хор п/у Евгения Евца / Церковные хоры Русского зарубежья

Дисковод: ASUS BC-1205PT Adapter: 1 ID: 0

Режим чтения : Достоверность
Использование точного потока : Да
Отключение кэша аудио : Да
Использование указателей C2 : Нет

Коррекция смещения при чтении : 667
Способность читать области Lead-in и Lead-out : Нет
Заполнение пропущенных сэмплов тишиной : Да
Удаление блоков с тишиной в начале и конце : Нет
При вычислениях CRC использовались нулевые сэмплы : Да
Интерфейс : Встроенный Win32-интерфейс для Win NT/2000

Выходной формат : Внутренние WAV-операции
Формат сэмплов : 44.100 Гц; 16 бит; стерео

TOC извлечённого CD

Трек | Старт | Длительность | Начальный сектор | Конечный сектор
---------------------------------------------------------------------
1 | 0:00.00 | 3:29.29 | 0 | 15703
2 | 3:29.29 | 3:40.56 | 15704 | 32259
3 | 7:10.10 | 2:28.36 | 32260 | 43395
4 | 9:38.46 | 2:39.05 | 43396 | 55325
5 | 12:17.51 | 2:14.46 | 55326 | 65421
6 | 14:32.22 | 1:52.09 | 65422 | 73830
7 | 16:24.31 | 2:53.19 | 73831 | 86824
8 | 19:17.50 | 2:26.71 | 86825 | 97845
9 | 21:44.46 | 3:04.62 | 97846 | 111707
10 | 24:49.33 | 2:13.62 | 111708 | 121744
11 | 27:03.20 | 3:38.08 | 121745 | 138102
12 | 30:41.28 | 2:12.07 | 138103 | 148009
13 | 32:53.35 | 1:51.14 | 148010 | 156348
14 | 34:44.49 | 2:07.57 | 156349 | 165930
15 | 36:52.31 | 4:22.33 | 165931 | 185613
16 | 41:14.64 | 3:43.19 | 185614 | 202357
17 | 44:58.08 | 2:12.16 | 202358 | 212273
18 | 47:10.24 | 2:15.42 | 212274 | 222440
19 | 49:25.66 | 2:19.26 | 222441 | 232891
20 | 51:45.17 | 1:41.70 | 232892 | 240536
21 | 53:27.12 | 1:33.56 | 240537 | 247567

Характеристики диапазона извлечения и сообщения об ошибках

Выбранный диапазон

Имя файла C:\Хор п у Евгения Евца - Церковные хоры Русского зарубежья.wav

Пиковый уровень 99.0 %
Качество диапазона 100.0 %
CRC копии B1267500
Копирование... OK

Ошибок не произошло
Download

Войдите на сайт, чтобы увидеть полную информацию.

Как скачивать  ·   Правила трекера

[Профиль]  [ЛС] 

otetsv

Стаж: 2 года 4 месяца

Сообщений: 1

Russia

post 05-Июн-2015 01:51 (спустя 5 лет 6 месяцев)

[Цитировать] 

как скачать?
[Профиль]  [ЛС] 
Показать сообщения:    
Ответить на тему

Текущее время: 24-Окт 04:35

Часовой пояс: GMT + 4



Вы не можете начинать темы
Вы не можете отвечать на сообщения
Вы не можете редактировать свои сообщения
Вы не можете удалять свои сообщения
Вы не можете голосовать в опросах
Вы не можете прикреплять файлы к сообщениям
Вы не можете скачивать файлы