Loading...
Error

(Колокольные звоны) "Колокольные Звоны Новгородского Свято-Юрьева Монастыря". Алексей Уткин. - 2006, APE (image + .cue), lossless

Ответить на тему
Статистика раздачи
   
 
Автор Сообщение

СЕРГУЛЕТ

Стаж: 8 лет 8 месяцев

Сообщений: 2640

Откуда: LA ROMANA

Dominicanrep

post 23-Окт-2009 16:51

[Цитировать] 

"Колокольные Звоны Новгородского Свято-Юрьева Монастыря". Алексей Уткин.

pic
Страна: Россия. ООО"Маркон".
Жанр: Колокольные звоны
Год выпуска: 2006
Формат: APE (image + .cue)
Битрейт аудио: lossless
Продолжительность: 00:57:12
Обложки+Содержание
picpic
EAC log
Exact Audio Copy V0.99 prebeta 5 from 4. May 2009

Отчёт EAC об извлечении, выполненном 23. октября 2009, 16:41

Алексей Уткин / Звоны Юрьева монастыря

Дисковод: ASUS BC-1205PT Adapter: 1 ID: 0

Режим чтения : Достоверность
Использование точного потока : Да
Отключение кэша аудио : Да
Использование указателей C2 : Нет

Коррекция смещения при чтении : 667
Способность читать области Lead-in и Lead-out : Нет
Заполнение пропущенных сэмплов тишиной : Да
Удаление блоков с тишиной в начале и конце : Нет
При вычислениях CRC использовались нулевые сэмплы : Да
Интерфейс : Встроенный Win32-интерфейс для Win NT/2000

Выходной формат : Внутренние WAV-операции
Формат сэмплов : 44.100 Гц; 16 бит; стерео

TOC извлечённого CD

Трек | Старт | Длительность | Начальный сектор | Конечный сектор
---------------------------------------------------------------------
1 | 0:00.00 | 8:01.68 | 0 | 36142
2 | 8:01.68 | 5:23.01 | 36143 | 60368
3 | 13:24.69 | 5:46.41 | 60369 | 86359
4 | 19:11.35 | 5:07.22 | 86360 | 109406
5 | 24:18.57 | 5:51.60 | 109407 | 135791
6 | 30:10.42 | 3:59.22 | 135792 | 153738
7 | 34:09.64 | 3:56.56 | 153739 | 171494
8 | 38:06.45 | 6:24.61 | 171495 | 200355
9 | 44:31.31 | 2:08.64 | 200356 | 210019
10 | 46:40.20 | 10:30.48 | 210020 | 257317

Характеристики диапазона извлечения и сообщения об ошибках

Выбранный диапазон

Имя файла C:\Алексей Уткин - Звоны Юрьева монастыря.wav

Пиковый уровень 94.2 %
Качество диапазона 99.9 %
CRC копии 4045DD4A
Копирование... OK

Ошибок не произошло
Конец отчёта
Download

Войдите на сайт, чтобы увидеть полную информацию.

Как скачивать  ·   Правила трекера

[Профиль]  [ЛС] 

Владимир Лухов

Стаж: 7 лет 1 месяц

Сообщений: 109

Откуда: Саратов

Russia

post 14-Ноя-2010 02:58 (спустя 1 год)

[Цитировать] 

Спсбо

_________________
С уважением. Владимир.
[Профиль]  [ЛС] 

+Сергей+

Стаж: 6 лет 10 месяцев

Сообщений: 225

Откуда: Москва

Russia

post 04-Дек-2010 19:16 (спустя 20 дней)

[Цитировать] 

Благодарю.
[Профиль]  [ЛС] 

post 20-Май-2015 18:15 (спустя 4 года 5 месяцев)

Топик был перенесен из форума Колокольные звоны в форум Архив аудио-раздач

Academic Crack
 
Показать сообщения:    
Ответить на тему

Текущее время: 20-Окт 22:00

Часовой пояс: GMT + 4



Вы не можете начинать темы
Вы не можете отвечать на сообщения
Вы не можете редактировать свои сообщения
Вы не можете удалять свои сообщения
Вы не можете голосовать в опросах
Вы не можете прикреплять файлы к сообщениям
Вы не можете скачивать файлы