Loading...
Error

(Церковная музыка и церковные хоры (lossless).) "Песнопения Великого Поста и Пасхи". Хор п/у Федора Паторжинского. Париж. - 2007, APE (image + .cue), lossless

Ответить на тему
Статистика раздачи
   
 
Автор Сообщение

СЕРГУЛЕТ

Стаж: 9 лет 9 месяцев

Сообщений: 2637

Откуда: LA ROMANA

Dominicanrep

post 21-Окт-2009 15:55

[Цитировать] 

"Песнопения Великого Поста и Пасхи". Хор п/у Федора Паторжинского. Париж.

pic
Страна: Россия. "MAXclassic&company".
Жанр: Церковная музыка и церковные хоры (lossless).
Год выпуска: 2007
Формат: APE (image + .cue)
Битрейт аудио: lossless
Продолжительность: 00:52:20
Трэклист:
ВЕЛИКИЙ ПОСТ:
1.Помощник и покровитель.
2.Душе моя,возстани...
3.Ныне Силы Небесныя...
4.Кресту Твоему поклоняемся,Владыко...
5.Господи,помилуй...
6.Аллилуия;Се Жених грядет в полунощи....
7.Чертог Твой вижду,Спасе мой...
8.Вечери Твоея Тайныя днесь...
9.Разбойника благоразумного....
10.Благообразный Йосиф...
11.Прийдите,ублажим Йосифа...
ПАСХА;
12.Волною морскою...
13.Не рыдай Мене,Мати...
14.Пасхальный крестный ход и начало утрени.
15.Ирмос 5-й песни Пасхального канона.
16.Воскресение Христово видевше...
17.Сей нареченный и Святый день..
18.Ангел вопияше...
19.Плотию уснув..
20.Воскресения день...
21.Стихи из огласительного слова
святителя Иоанна Златоуста.
22.Уст твоих якоже светлость огня...
23.Сей день,егоже сотвори Господь...
Дополнительная информация: Архивные записи 1950-х.годов.Париж.
Обложки+Содержание
picpicpicpic
EAC log
Exact Audio Copy V0.99 prebeta 5 from 4. May 2009

Отчёт EAC об извлечении, выполненном 21. октября 2009, 13:04

Хор Феодора Паторжинского / Песнопения Великого Поста и Пасхи

Дисковод: ASUS BC-1205PT Adapter: 1 ID: 0

Режим чтения : Достоверность
Использование точного потока : Да
Отключение кэша аудио : Да
Использование указателей C2 : Нет

Коррекция смещения при чтении : 667
Способность читать области Lead-in и Lead-out : Нет
Заполнение пропущенных сэмплов тишиной : Да
Удаление блоков с тишиной в начале и конце : Нет
При вычислениях CRC использовались нулевые сэмплы : Да
Интерфейс : Встроенный Win32-интерфейс для Win NT/2000

Выходной формат : Внутренние WAV-операции
Формат сэмплов : 44.100 Гц; 16 бит; стерео

TOC извлечённого CD

Трек | Старт | Длительность | Начальный сектор | Конечный сектор
---------------------------------------------------------------------
1 | 0:00.00 | 2:56.48 | 0 | 13247
2 | 2:56.48 | 2:20.42 | 13248 | 23789
3 | 5:17.15 | 3:28.35 | 23790 | 39424
4 | 8:45.50 | 2:42.36 | 39425 | 51610
5 | 11:28.11 | 1:38.01 | 51611 | 58961
6 | 13:06.12 | 3:06.37 | 58962 | 72948
7 | 16:12.49 | 2:14.21 | 72949 | 83019
8 | 18:26.70 | 3:32.26 | 83020 | 98945
9 | 21:59.21 | 1:40.68 | 98946 | 106513
10 | 23:40.14 | 3:13.08 | 106514 | 120996
11 | 26:53.22 | 4:17.30 | 120997 | 140301
12 | 31:10.52 | 2:09.72 | 140302 | 150048
13 | 33:20.49 | 1:52.46 | 150049 | 158494
14 | 35:13.20 | 4:05.25 | 158495 | 176894
15 | 39:18.45 | 0:31.55 | 176895 | 179274
16 | 39:50.25 | 1:44.46 | 179275 | 187120
17 | 41:34.71 | 0:57.11 | 187121 | 191406
18 | 42:32.07 | 2:48.04 | 191407 | 204010
19 | 45:20.11 | 1:18.03 | 204011 | 209863
20 | 46:38.14 | 1:08.35 | 209864 | 214998
21 | 47:46.49 | 0:46.04 | 214999 | 218452
22 | 48:32.53 | 1:07.18 | 218453 | 223495
23 | 49:39.71 | 2:38.64 | 223496 | 235409

Характеристики диапазона извлечения и сообщения об ошибках

Выбранный диапазон

Имя файла C:\Хор Феодора Паторжинского - Песнопения Великого Поста и Пасхи.wav

Пиковый уровень 97.3 %
Качество диапазона 100.0 %
CRC копии 543E0FF1
Копирование... OK

Ошибок не произошло
Конец отчёта
Download

Войдите на сайт, чтобы увидеть полную информацию.

Как скачивать  ·   Правила трекера



Последний раз редактировалось: СЕРГУЛЕТ (2010-02-14 11:27), всего редактировалось 1 раз
[Профиль]  [ЛС] 

gvozzzd

post 21-Окт-2010 18:18 (спустя 1 год)

[Цитировать] 

Пожалуйста дайте скачать! Сиды Ау!
 

sudilovski

Стаж: 4 года 7 месяцев

Сообщений: 3

post 21-Июл-2017 03:37 (спустя 6 лет 8 месяцев)

[Цитировать] 

del
[Профиль]  [ЛС] 
Показать сообщения:    
Ответить на тему

Текущее время: 17-Ноя 00:42

Часовой пояс: GMT + 4



Вы не можете начинать темы
Вы не можете отвечать на сообщения
Вы не можете редактировать свои сообщения
Вы не можете удалять свои сообщения
Вы не можете голосовать в опросах
Вы не можете прикреплять файлы к сообщениям
Вы не можете скачивать файлы