Loading...
Error

(духовные песнопения) Детско-юношеский хор Св. Иоанна Дамаскина — Пасха верных. Песнопения византийской традиции - 2004, FLAC (tracks), lossless

Ответить на тему
Статистика раздачи
   
 
Автор Сообщение

Виталий Липатов

Администратор

Стаж: 54 года

Сообщений: 576

Russia

post 28-Мар-2024 22:32

[Цитировать] 

Детско-юношеский хор Св. Иоанна Дамаскина — Пасха верных. Песнопения византийской традиции

pic
Страна: Россия
Жанр: духовные песнопения
Год выпуска: 2004
Формат: FLAC (tracks)
Битрейт аудио: lossless
Продолжительность: 52 мин 46 сек
Трэклист:
Трэклист:

01. Се жених грядет в полунощи... [01:49.49]
02. Чертог Твой вижду... [02:31.56]
03. Днесь висит на древе... [05:58.57]
04. Звоны Гроба Господня. Тропарь Пасхи гл.5 [02:34.71]
05. Воскресения день... песнь1 [02:19.15]
06. Приидите пиво пием новое... песнь3 [02:27.45]
07. На Божественной стражи... песнь4 [03:12.54]
08. Утренюем утреннюю глубоку... песнь 5 [02:08.41]
09. Снизшел еси в преисподняя земли... песнь 6, Воскрес Иисус от гроба... [03:35.47]
10. Отроки от пещи избавивый... песнь 7 [03:37.27]
11. Сей нареченный и святый день... песнь 8 [03:10.23]
12. Величит душе моя... Светися, светися... песнь 9 [07:08.35]
13. Плотию уснув... Эксапостиларий глас 2 [02:33.42]
14. Да воскреснет Бог... Пасха Священная [00:57.36]
15. Яко исчезает дым... Прииидите от видения [00:52.31]
16. Тако до погибнут грешницы... Мироносицы жены [01:45.73]
17. Сей день, егоже сотвори Господь... Пасха красная [01:02.32]
18. Воскресения день... славник Пасхи гл. 5 [03:26.22]
19. Аще и во гроб...кондак Пасхи гл. 8 [00:51.41]
20. Христос воскресе из мертвых тропарь Пасхи гл.5 [01:52.24]
скрытый текст
Exact Audio Copy V0.99 prebeta 3 from 28. July 2007

Отчёт EAC об извлечении, выполненном 15. апреля 2009, 22:37

Детско-юношеский хор Св. Иоанна Дамаскина Собора Владимирской иконы Божией Матери СПб / Пасха верных. Песнопения византийской традиции

Дисковод: PLEXTOR DVDR PX-820A Adapter: 5 ID: 0

Режим чтения : Достоверность
Использование точного потока : Да
Отключение кэша аудио : Да
Использование указателей C2 : Нет

Коррекция смещения при чтении : 48
Способность читать области Lead-in и Lead-out : Нет
Заполнение пропущенных сэмплов тишиной : Да
Удаление блоков с тишиной в начале и конце : Нет
При вычислениях CRC использовались нулевые сэмплы : Нет
Интерфейс : Установленный внешний ASPI-интерфейс
Обработка зазоров : Добавлено к предыдущему треку

Выходной формат : Пользовательский кодировщик
Выбранный битрейт : 768 kBit/s
Качество : Высокий
Добавление ID3-тэга : Нет
Утилита сжатия : C:\Program Files\Exact Audio Copy\FLAC\FLAC.EXE
Дополнительные параметры : -6 -V -T "ARTIST=%a" -T "TITLE=%t" -T "ALBUM=%g" -T "DATE=%y" -T "TRACKNUMBER=%n" -T "GENRE=%m" -T "COMMENT=%e" %s -o %d

TOC извлечённого CD

Трек | Старт | Длительность | Начальный сектор | Конечный сектор
---------------------------------------------------------------------
1 | 0:00.00 | 1:49.49 | 0 | 8223
2 | 1:49.49 | 2:31.56 | 8224 | 19604
3 | 4:21.30 | 5:58.57 | 19605 | 46511
4 | 10:20.12 | 2:34.71 | 46512 | 58132
5 | 12:55.08 | 2:19.15 | 58133 | 68572
6 | 15:14.23 | 2:27.45 | 68573 | 79642
7 | 17:41.68 | 3:12.54 | 79643 | 94096
8 | 20:54.47 | 2:08.41 | 94097 | 103737
9 | 23:03.13 | 3:35.47 | 103738 | 119909
10 | 26:38.60 | 3:37.27 | 119910 | 136211
11 | 30:16.12 | 3:10.23 | 136212 | 150484
12 | 33:26.35 | 7:08.35 | 150485 | 182619
13 | 40:34.70 | 2:33.42 | 182620 | 194136
14 | 43:08.37 | 0:57.36 | 194137 | 198447
15 | 44:05.73 | 0:52.31 | 198448 | 202378
16 | 44:58.29 | 1:45.73 | 202379 | 210326
17 | 46:44.27 | 1:02.32 | 210327 | 215008
18 | 47:46.59 | 3:26.22 | 215009 | 230480
19 | 51:13.06 | 0:51.41 | 230481 | 234346
20 | 52:04.47 | 1:52.24 | 234347 | 242770

Трек 1

Имя файла M:\LOSSLESS 2009\Детско-юношеский хор Св. Иоанна Дамаскина Собора Владимирской иконы Божией Матери СПб\01. Се жених грядет в полунощи....wav

Длина предзазора 0:00:02.00

Пиковый уровень 97.7 %
Качество трека 100.0 %
CRC теста DB4C841C
CRC копии DB4C841C
Копирование... OK

Трек 2

Имя файла M:\LOSSLESS 2009\Детско-юношеский хор Св. Иоанна Дамаскина Собора Владимирской иконы Божией Матери СПб\02. Чертог Твой вижду....wav

Пиковый уровень 94.2 %
Качество трека 99.9 %
CRC теста 9F68102F
CRC копии 9F68102F
Копирование... OK

Трек 3

Имя файла M:\LOSSLESS 2009\Детско-юношеский хор Св. Иоанна Дамаскина Собора Владимирской иконы Божией Матери СПб\03. Днесь висит на древе....wav

Пиковый уровень 97.7 %
Качество трека 100.0 %
CRC теста F0025D6E
CRC копии F0025D6E
Копирование... OK

Трек 4

Имя файла M:\LOSSLESS 2009\Детско-юношеский хор Св. Иоанна Дамаскина Собора Владимирской иконы Божией Матери СПб\04. Звоны Гроба Господня. Тропарь Пасхи гл.5.wav

Пиковый уровень 97.7 %
Качество трека 100.0 %
CRC теста CBA35346
CRC копии CBA35346
Копирование... OK

Трек 5

Имя файла M:\LOSSLESS 2009\Детско-юношеский хор Св. Иоанна Дамаскина Собора Владимирской иконы Божией Матери СПб\05. Воскресения день... песнь1.wav

Пиковый уровень 97.7 %
Качество трека 100.0 %
CRC теста 57984257
CRC копии 57984257
Копирование... OK

Трек 6

Имя файла M:\LOSSLESS 2009\Детско-юношеский хор Св. Иоанна Дамаскина Собора Владимирской иконы Божией Матери СПб\06. Приидите пиво пием новое... песнь3.wav

Пиковый уровень 97.7 %
Качество трека 100.0 %
CRC теста D61B156C
CRC копии D61B156C
Копирование... OK

Трек 7

Имя файла M:\LOSSLESS 2009\Детско-юношеский хор Св. Иоанна Дамаскина Собора Владимирской иконы Божией Матери СПб\07. На Божественной стражи... песнь4.wav

Пиковый уровень 97.7 %
Качество трека 100.0 %
CRC теста 8CCF156D
CRC копии 8CCF156D
Копирование... OK

Трек 8

Имя файла M:\LOSSLESS 2009\Детско-юношеский хор Св. Иоанна Дамаскина Собора Владимирской иконы Божией Матери СПб\08. Утренюем утреннюю глубоку... песнь 5.wav

Пиковый уровень 97.7 %
Качество трека 100.0 %
CRC теста 31311255
CRC копии 31311255
Копирование... OK

Трек 9

Имя файла M:\LOSSLESS 2009\Детско-юношеский хор Св. Иоанна Дамаскина Собора Владимирской иконы Божией Матери СПб\09. Снизшел еси в преисподняя земли... песнь 6, Воскрес Иисус от гроба....wav

Пиковый уровень 97.7 %
Качество трека 100.0 %
CRC теста 37257531
CRC копии 37257531
Копирование... OK

Трек 10

Имя файла M:\LOSSLESS 2009\Детско-юношеский хор Св. Иоанна Дамаскина Собора Владимирской иконы Божией Матери СПб\10. Отроки от пещи избавивый... песнь 7.wav

Пиковый уровень 97.7 %
Качество трека 100.0 %
CRC теста F7E6F5AF
CRC копии F7E6F5AF
Копирование... OK

Трек 11

Имя файла M:\LOSSLESS 2009\Детско-юношеский хор Св. Иоанна Дамаскина Собора Владимирской иконы Божией Матери СПб\11. Сей нареченный и святый день... песнь 8.wav

Пиковый уровень 97.7 %
Качество трека 100.0 %
CRC теста 0742F624
CRC копии 0742F624
Копирование... OK

Трек 12

Имя файла M:\LOSSLESS 2009\Детско-юношеский хор Св. Иоанна Дамаскина Собора Владимирской иконы Божией Матери СПб\12. Величит душе моя... Светися, светися... песнь 9.wav

Пиковый уровень 97.7 %
Качество трека 100.0 %
CRC теста 09AB9392
CRC копии 09AB9392
Копирование... OK

Трек 13

Имя файла M:\LOSSLESS 2009\Детско-юношеский хор Св. Иоанна Дамаскина Собора Владимирской иконы Божией Матери СПб\13. Плотию уснув... Эксапостиларий глас 2.wav

Пиковый уровень 97.7 %
Качество трека 100.0 %
CRC теста F3668D11
CRC копии F3668D11
Копирование... OK

Трек 14

Имя файла M:\LOSSLESS 2009\Детско-юношеский хор Св. Иоанна Дамаскина Собора Владимирской иконы Божией Матери СПб\14. Да воскреснет Бог... Пасха Священная.wav

Пиковый уровень 97.7 %
Качество трека 100.0 %
CRC теста 49DA21C1
CRC копии 49DA21C1
Копирование... OK

Трек 15

Имя файла M:\LOSSLESS 2009\Детско-юношеский хор Св. Иоанна Дамаскина Собора Владимирской иконы Божией Матери СПб\15. Яко исчезает дым... Прииидите от видения.wav

Пиковый уровень 97.7 %
Качество трека 100.0 %
CRC теста 6626FD2B
CRC копии 6626FD2B
Копирование... OK

Трек 16

Имя файла M:\LOSSLESS 2009\Детско-юношеский хор Св. Иоанна Дамаскина Собора Владимирской иконы Божией Матери СПб\16. Тако до погибнут грешницы... Мироносицы жены.wav

Пиковый уровень 97.7 %
Качество трека 100.0 %
CRC теста E22080C0
CRC копии E22080C0
Копирование... OK

Трек 17

Имя файла M:\LOSSLESS 2009\Детско-юношеский хор Св. Иоанна Дамаскина Собора Владимирской иконы Божией Матери СПб\17. Сей день, егоже сотвори Господь... Пасха красная.wav

Пиковый уровень 97.7 %
Качество трека 99.8 %
CRC теста BA8F2796
CRC копии BA8F2796
Копирование... OK

Трек 18

Имя файла M:\LOSSLESS 2009\Детско-юношеский хор Св. Иоанна Дамаскина Собора Владимирской иконы Божией Матери СПб\18. Воскресения день... славник Пасхи гл. 5.wav

Пиковый уровень 97.7 %
Качество трека 100.0 %
CRC теста ED04E88B
CRC копии ED04E88B
Копирование... OK

Трек 19

Имя файла M:\LOSSLESS 2009\Детско-юношеский хор Св. Иоанна Дамаскина Собора Владимирской иконы Божией Матери СПб\19. Аще и во гроб...кондак Пасхи гл. 8.wav

Пиковый уровень 92.8 %
Качество трека 100.0 %
CRC теста 282AC354
CRC копии 282AC354
Копирование... OK

Трек 20

Имя файла M:\LOSSLESS 2009\Детско-юношеский хор Св. Иоанна Дамаскина Собора Владимирской иконы Божией Матери СПб\20. Христос воскресе из мертвых тропарь Пасхи гл.5.wav

Пиковый уровень 97.7 %
Качество трека 100.0 %
CRC теста 4E026E9D
CRC копии 4E026E9D
Копирование... OK

Ошибок не произошло

Конец отчёта
Доп. информация:

Регент Ирина Болдышева

Песнопения Страстной Седмицы
Песнопения Пасхи

«Песнопения византийской традиции» — совершенно необыкновенная запись детско-юношеского хора Св.Иоанна Дамаскина собора Владимирской иконы Божией Матери Санкт-Петербурга. Песнопения исполняются на греческом и церковно-славянском языках.

Поразительно красиво и мягко звучат юные голоса. Идеальный звуковой баланс и во всех нюансах полное соответствие традиции подчеркивают выразительность древних распевов.

Все записанные на диске песнопения производят на слушателей сильное впечатление и надолго остаются в памяти.

Цветной буклет 82 стр. с фотографиями и превосходно написанным рассказом о хоре и с нотной записью песнопений.
Download

Войдите на сайт, чтобы увидеть полную информацию.

Как скачивать  ·   Правила трекера

[Профиль]  [ЛС] 
Показать сообщения:    
Ответить на тему

Текущее время: 22-Апр 14:32

Часовой пояс: GMT + 4



Вы не можете начинать темы
Вы не можете отвечать на сообщения
Вы не можете редактировать свои сообщения
Вы не можете удалять свои сообщения
Вы не можете голосовать в опросах
Вы не можете прикреплять файлы к сообщениям
Вы не можете скачивать файлы