Loading...
Error

Король-олень (Павел Арсенов) [1969 г., Сказка/музыкальный, DVDRip]

Ответить на тему
Статистика раздачи
   
 
Автор Сообщение

Анатолий Скурин

Стаж: 6 лет 3 месяца

Сообщений: 151

Russia

post 06-Фев-2019 18:42

[Цитировать] 

Король-олень
pic
Жанр: Сказка/Музыкальный
Год выпуска: 1969
Производство: Киностудия им.Горького
Продолжительность: 01:11:45
Сценарий: Вадим Коростылев, Карло Гоцци
Режиссёр: Павел Арсенов
Оператор: Инна Зарафьян
Композитор: Микаэл Таривердиев

В ролях: Олег Ефремов (Дурандарте, он же - Лицо от Автора), Юрий Яковлев (Дерамо, он же - Король Серендиппа), Сергей Юрский (Тарталья, одаренный злодей, он же - Первый Министр), Владимир Шлезингер (Панталоне, Второй Министр), Валентина Малявина (Анджела, дочь Панталоне), Олег Табаков (Чиголотти, слуга Дурандарте), Владимир Грамматиков (Дзанни), Елена Соловей (Клариче, дочь Тартальи), Виктор Зозулин (Леандр, сын Панталоне, брат Анджелы), Виталий Комиссаров (Дзанни), Александр Вигдоров, Юрий Сорокин, Вячеслав Подвиг, Светлана Данильченко, Михаил Селютин, Игорь Суровцев, Станислав Бородокин
Солисты
: Алла Пугачева, С.Кондратенко, С.Пайкова, З.Смольянинова

Описание: По мотивам комедии дель арте Карло Гоцци.
Король Дерамо хочет жениться, но не знает, как распознать искреннюю любовь. Чтобы помочь ему, волшебник привез ко двору чудесного `болвана`, безошибочно отличающего ложь от придворной лести. Но дальше начинается восхитительная сказочная путаница...
Этот фильм стал классикой музыкальной сказки. Современные авторы смешали в нем и взрослую сказку, придуманную в XVII веке и переосмысленную в период советской 'оттепели', и экспериментальные киносъемки в нарочито театральной манере, и оперу с элементами комедии дель арте и открытый финал (последнее очень не приветствовалось в те времена и паче того - после). Это было ярко, ново и авангардно (о том, как создавалась картина: 'Тайны кино. Король-олень')

pic


pic


pic pic

Качество видео: DVDRip
Формат видео: AVI
Видео: DivX5, 720х544 (1.33:1), 25 fps, ~1999 kbps avg
Аудио: AC3 Dolby Digital, 48 kHz, 192.00 kbps avg, 2/0 (L,R) ch
MediaInfo
Общее
Полное имя : H:\- - - ТОРРЕНТЫ\Korol-olen (1969).avi
Формат : AVI
Формат/Информация : Audio Video Interleave
Размер файла : 1,10 Гбайт
Продолжительность : 1 ч. 11 м.
Общий поток : 2200 Кбит/сек

Видео
Идентификатор : 0
Формат : MPEG-4 Visual
Параметр BVOP формата : 1
Параметр QPel формата : Нет
Параметр GMC формата : Без точки перехода
Параметр матрицы формата : Default (H.263)
Идентификатор кодека : DX50
Идентификатор кодека/Подсказка : DivX 5
Продолжительность : 1 ч. 11 м.
Битрейт : 1999 Кбит/сек
Ширина : 720 пикселей
Высота : 544 пикселя
Соотношение сторон : 4:3
Частота кадров : 25,000 кадров/сек
Цветовое пространство : YUV
Субдискретизация насыщенности : 4:2:0
Битовая глубина : 8 бит
Тип развёртки : Прогрессивная
Метод сжатия : С потерями
Бит/(Пиксели*Кадры) : 0.204
Размер потока : 1,00 Гбайт (91%)
Библиотека кодирования : DivX 6.8.5 (UTC 2009-08-20)

Аудио
Идентификатор : 1
Формат : AC-3
Формат/Информация : Audio Coding 3
Расширение режима : CM (complete main)
Параметр Endianness формата : Big
Идентификатор кодека : 2000
Продолжительность : 1 ч. 11 м.
Вид битрейта : Постоянный
Битрейт : 192 Кбит/сек
Каналы : 2 канала
Расположение каналов : Front: L R
Частота : 48,0 КГц
Битовая глубина : 16 бит
Метод сжатия : С потерями
Размер потока : 98,5 Мбайт (9%)
Выравнивание : Соединение по промежуткам
Продолжительность промежутка : 40 мс. (1,00 видеокадр)
Время предзагрузки промежутка : 512 мс.
Скриншоты
picpicpicpicpicpic
Download

Войдите на сайт, чтобы увидеть полную информацию.

Как скачивать  ·   Правила трекера

[Профиль]  [ЛС] 
Показать сообщения:    
Ответить на тему

Текущее время: 21-Фев 14:09

Часовой пояс: GMT + 4



Вы не можете начинать темы
Вы не можете отвечать на сообщения
Вы не можете редактировать свои сообщения
Вы не можете удалять свои сообщения
Вы не можете голосовать в опросах
Вы не можете прикреплять файлы к сообщениям
Вы не можете скачивать файлы