Loading...
Error

Белые росы. Возвращение

Ответить на тему
Статистика раздачи
   
 
Автор Сообщение

Анатолий Скурин

Стаж: 6 лет 1 месяц

Сообщений: 148

Russia

post 11-Ноя-2018 19:28

[Цитировать] 

Белые росы. Возвращение
pic
Страна: Республика Беларусь
Производство: к\ст Беларусьфильм
Год выпуска: 2014
Жанр: комедия, мелодрама
Продолжительность: 01:40:23
Сценаристы: Алексей Дударев, Александра Бутор, Юлия Гирель
Режиссер: Александра Бутор (Аляксандра Бутар)

В ролях: Юозас Будрайтис, Николай Караченцов, Виктор Манаев, Павел Южаков-Харланчук, Сергей Жбанков, Ирина Егорова, Андрей Мерзликин, Анна Полупанова, Евгения Жукович, Юлия Смирнова, Татьяна Гаркуша, Жорж Девдариани, Анатолий Голуб, Вера Полякова, Максим Пониматченко, Павел Адамчиков, Галина Кухальская

Сюжет фильма:
Продолжение знаменитого фильма 1983 года "Белые росы" (реж.И.Добролюбов).
Пожив в городе, Андрей Ходас возвращается к земле и селится на хуторе. Однако стремительно разрастающийся город настигает его и здесь. Пара молодых и энергичных бизнесменов намерена выкупить живописный уголок для нового строительства и пытается выселить его немногочисленных обитателей. Спасая свой хрупкий мир от вторжения и разрушений, Андрей помогает всей семье вспомнить о своих корнях и распутать проблемы, казавшиеся неразрешимыми в суетливой атмосфере городской жизни.
Премьера: 6 сентября 2014 (кинофестиваль "Московская премьера")
pic
pic
Качество видео: TVRip
Формат файла: avi
Видео: кодек: DivX, размер кадра: 720х320 (2,25:1), битрейт: 1818 кб/с, частота кадров: 25 кадров/сек
Аудио: Язык: русский, аудиокодек: MP3, битрейт аудио: 128 кб/с, частота дискретизации: 48кГц
MediaInfo
Общее
Полное имя : H:\- - - ТОРРЕНТЫ\Белые росы. Возвращение (2014)\Белые росы. Возвращение (2014).avi
Формат : AVI
Формат/Информация : Audio Video Interleave
Размер файла : 1,37 Гбайт
Продолжительность : 1 ч. 40 м.
Общий поток : 1956 Кбит/сек

Видео
Идентификатор : 0
Формат : MPEG-4 Visual
Параметр BVOP формата : 1
Параметр QPel формата : Нет
Параметр GMC формата : Без точки перехода
Параметр матрицы формата : Default (H.263)
Идентификатор кодека : DX50
Идентификатор кодека/Подсказка : DivX 5
Продолжительность : 1 ч. 40 м.
Битрейт : 1818 Кбит/сек
Ширина : 720 пикселей
Высота : 320 пикселей
Соотношение сторон : 2,25:1
Частота кадров : 25,000 кадров/сек
Цветовое пространство : YUV
Субдискретизация насыщенности : 4:2:0
Битовая глубина : 8 бит
Тип развёртки : Прогрессивная
Метод сжатия : С потерями
Бит/(Пиксели*Кадры) : 0.316
Размер потока : 1,27 Гбайт (93%)
Библиотека кодирования : DivX 6.8.3-6.8.4 (UTC 2008-06-07)

Аудио
Идентификатор : 1
Формат : MPEG Audio
Версия формата : Version 1
Профиль формата : Layer 3
Режим : Joint stereo
Расширение режима : MS Stereo
Идентификатор кодека : 55
Идентификатор кодека/Подсказка : MP3
Продолжительность : 1 ч. 40 м.
Вид битрейта : Постоянный
Битрейт : 128 Кбит/сек
Каналы : 2 канала
Частота : 48,0 КГц
Метод сжатия : С потерями
Размер потока : 91,9 Мбайт (7%)
Выравнивание : Разделение по промежуткам
Продолжительность промежутка : 40 мс. (1,00 видеокадр)
Время предзагрузки промежутка : 500 мс.
Скриншоты
pic
pic
pic
pic
pic
pic
Download

Войдите на сайт, чтобы увидеть полную информацию.

Как скачивать  ·   Правила трекера

[Профиль]  [ЛС] 
Показать сообщения:    
Ответить на тему

Текущее время: 13-Дек 01:05

Часовой пояс: GMT + 4



Вы не можете начинать темы
Вы не можете отвечать на сообщения
Вы не можете редактировать свои сообщения
Вы не можете удалять свои сообщения
Вы не можете голосовать в опросах
Вы не можете прикреплять файлы к сообщениям
Вы не можете скачивать файлы