Loading...
Error

Пасха Христова. Торжественное Пасхальное Богослужение из Кафедрального Соборного Храма Христа Спасителя / Первый канал HD [08.04.2018, Богослужение, HDTVRip]

Ответить на тему
Статистика раздачи
   
 
Автор Сообщение

gmm120880

Стаж: 2 года 11 месяцев

Сообщений: 2

Russia

post 08-Апр-2018 16:51

[Цитировать] 

Пасха Христова
Торжественное Пасхальное Богослужение из Кафедрального Соборного Храма Христа Спасителя


pic
Дата/Год выпуска: 08.04.2018
Страна: Россия
Жанр: Богослужение
Продолжительность: 02:42:52
Перевод: Не требуется
Русские субтитры: нет

Телеканал: pic

Описание: Первый канал представляет трансляцию рождественского богослужения из Храма Христа Спасителя в Москве. В ночь с 7 апреля на 8 апреля 2017 года в кафедральном соборном Храме Христа Спасителя в Москве Святейший Патриарх Московский и всея Руси Кирилл совершил Пасхальные богослужения — полунощницу, крестный ход, Пасхальную заутреню и Божественную литургию свт. Иоанна Златоуста.

Автор рипа/записи: pic
Сэмпл: http://multi-up.com/1194193

Качество: HDTVRip
Формат видео: AVI
Видео: 720x400 (16:9), 25 fps, XviD, 1500 Kbps
Аудио: 48 kHz, MP3, 2 ch, 128.00 kbps avg
MediaInfo
[pre]
Полное имя : Пасха Христова. Прямая трансляция Торжественного Пасхального богослужения из Храма Христа Спасителя (08.04.18)[400p by gmm120880].avi
Формат : AVI
Формат/Информация : Audio Video Interleave
Размер файла : 1,87 Гбайт
Продолжительность : 2 ч. 42 м.
Общий поток : 1640 Кбит/сек
Программа кодирования : Lavf57.71.100
Библиотека кодирования : VirtualDub build 35491/release

Видео
Идентификатор : 0
Формат : MPEG-4 Visual
Профиль формата : Advanced Simple@L5
Параметр BVOP формата : 1
Параметр QPel формата : Нет
Параметр GMC формата : Без точки перехода
Параметр матрицы формата : Default (H.263)
Идентификатор кодека : XVID
Идентификатор кодека/Подсказка : XviD
Продолжительность : 2 ч. 42 м.
Битрейт : 1500 Кбит/сек
Ширина : 720 пикселей
Высота : 400 пикселей
Соотношение сторон : 16:9
Частота кадров : 25,000 кадров/сек
Цветовое пространство : YUV
Субдискретизация насыщенности : 4:2:0
Битовая глубина : 8 бит
Тип развёртки : Прогрессивная
Метод сжатия : С потерями
Бит/(Пиксели*Кадры) : 0.208
Размер потока : 1,71 Гбайт (91%)
Библиотека кодирования : XviD 67

Аудио
Идентификатор : 1
Формат : MPEG Audio
Версия формата : Version 1
Профиль формата : Layer 3
Режим : Joint stereo
Расширение режима : MS Stereo
Идентификатор кодека : 55
Идентификатор кодека/Подсказка : MP3
Продолжительность : 2 ч. 42 м.
Вид битрейта : Постоянный
Битрейт : 128 Кбит/сек
Каналы : 2 канала
Частота : 44,1 КГц
Метод сжатия : С потерями
Размер потока : 149 Мбайт (8%)
Выравнивание : Соединение по промежуткам
Продолжительность промежутка : 26 мс. (0,65 видеокадр)
Время предзагрузки промежутка : 522 мс.
Библиотека кодирования : LAME3.100m$Уqяh)Fз

[/pre]
Скриншоты
pic pic pic pic pic pic pic pic

Download

Войдите на сайт, чтобы увидеть полную информацию.

Как скачивать  ·   Правила трекера

[Профиль]  [ЛС] 

gmm120880

Стаж: 2 года 11 месяцев

Сообщений: 2

Russia

post 08-Апр-2018 16:53 (спустя 1 минута)

[Цитировать] 

Христос Воскрес! С Великим праздником Всех!
[Профиль]  [ЛС] 

royalstag

Стаж: 2 года 11 месяцев

Сообщений: 366

Russia

post 08-Апр-2018 21:22 (спустя 4 часа)

[Цитировать] 

gmm120880
воистину воскресе ! благодарим, дорогой брат, за выложенный материал.
и по поводу вопроса на рутреккер насчет проверки - вряд ли ее быстро проверят, у меня там раздачи полтора месяца уже не проверены, более 50 штук
[Профиль]  [ЛС] 

mangealic

Стаж: 4 года 2 месяца

Сообщений: 76

post 10-Апр-2018 10:20 (спустя 1 день 12 часов)

[Цитировать] 

Христос Воскрес!
[Профиль]  [ЛС] 

royalstag

Стаж: 2 года 11 месяцев

Сообщений: 366

Russia

post 15-Апр-2018 21:53 (спустя 5 дней)

[Цитировать] 

mangealic
воистину воскресе !
[Профиль]  [ЛС] 
Показать сообщения:    
Ответить на тему

Текущее время: 16-Окт 18:23

Часовой пояс: GMT + 4



Вы не можете начинать темы
Вы не можете отвечать на сообщения
Вы не можете редактировать свои сообщения
Вы не можете удалять свои сообщения
Вы не можете голосовать в опросах
Вы не можете прикреплять файлы к сообщениям
Вы не можете скачивать файлы