Loading...
Error

Холопов А.В. - Вопросы семьи и брака, противостояние информационной агресси

Ответить на тему
Статистика раздачи
Скачали: [ 2 ]
   
 
Автор Сообщение

Сан Саныч

Стаж: 10 месяцев

Сообщений: 9

post 10-Июл-2016 19:45

[Цитировать] 

Вопросы семьи и брака, противостояние информационной агресси

pic
Год выпуска: 2016
Страна: Россия
Жанр: Лекция
Лектор: Холопов Алексей Васильевич
Продолжительность: 01:15:26
Язык: Русский
Русские субтитры: Нет

Описание: В лектории храма свт. Николая Чудотворца в п Лебяжье, состоялась лекция доцента, кандидата юридических наук Холопова Алексея Васильевича

Качество: SATRip
Формат: MPEG-4
Видео кодек: AVC
Аудио кодек: AAC
Видео: 2149 Кбит/сек, 1920*1080 (16:9), в 25,000 кадров/сек, AVC (High@L4) (CABAC / 3 Ref Frames)
Аудио: 126 Кбит/сек, 44,1 КГц, 2 канала, AAC (LC)

Время раздачи: с 14:00 до 22:00 МСК Раздаю до первых сидов
Просьба: Все кто скачал фильм, не уходите с раздачи

pic
MediaInfo
Видео
Идентификатор : 1
Формат : AVC
Формат/Информация : Advanced Video Codec
Профиль формата : High@L4
Параметр CABAC формата : Да
Параметр ReFrames формата : 3 кадра
Идентификатор кодека : avc1
Идентификатор кодека/Информация : Advanced Video Coding
Продолжительность : 1 ч. 15 м.
Битрейт : 2149 Кбит/сек
Ширина : 1920 пикселей
Высота : 1080 пикселей
Соотношение сторон : 16:9
Режим частоты кадров : Постоянный
Частота кадров : 25,000 кадров/сек
Цветовое пространство : YUV
Субдискретизация насыщенности : 4:2:0
Битовая глубина : 8 бит
Тип развёртки : Прогрессивная
Бит/(Пиксели*Кадры) : 0.041
Размер потока : 1,13 Гбайт (94%)

Аудио
Идентификатор : 2
Формат : AAC
Формат/Информация : Advanced Audio Codec
Профиль формата : LC
Идентификатор кодека : 40
Продолжительность : 1 ч. 15 м.
Вид битрейта : Постоянный
Битрейт : 126 Кбит/сек
Каналы : 2 канала
Расположение каналов : Front: L R
Частота : 44,1 КГц
Частота кадров : 43,066 кадра/сек (1024 spf)
Метод сжатия : С потерями
Размер потока : 67,8 Мбайт (6%)
Скриншоты
picpicpicpicpicpic
Нажмите на превью картинки - картинка откроется в другом окне.
Чтобы посмотреть оригинал фотографии, для этого нужно нажать под фото справа "три точки ...", и нажать "Открыть оригинал".
Download

Войдите для скачивания торрент-файла

Как скачивать  ·   Правила трекера



Последний раз редактировалось: Сан Саныч (2016-07-22 14:12), всего редактировалось 2 раз(а)
[Профиль]  [ЛС] 

Игорь I

Стаж: 8 лет 1 месяц

Сообщений: 1580

Russia

post 21-Июл-2016 14:39 (спустя 10 дней)

[Цитировать] 

Благодарю
[Профиль]  [ЛС] 

a1bllll

Стаж: 6 лет 3 месяца

Сообщений: 324

Russia

post 22-Июл-2016 01:50 (спустя 11 часов)

[Цитировать] 

Спаси Вас Бог!!!

_________________
Слава Богу за всё!
[Профиль]  [ЛС] 
Показать сообщения:    
Ответить на тему

Текущее время: 29-Май 09:48

Часовой пояс: GMT + 4



Вы не можете начинать темы
Вы не можете отвечать на сообщения
Вы не можете редактировать свои сообщения
Вы не можете удалять свои сообщения
Вы не можете голосовать в опросах
Вы не можете прикреплять файлы к сообщениям
Вы не можете скачивать файлы