Loading...
Error

Шишкина Школа. Русский язык [2010, Передача для детей, SATRip, RUS] (Видеоурок)

Ответить на тему
Статистика раздачи
   
 
Автор Сообщение

Виталий Липатов

Администратор

Стаж: 49 лет

Сообщений: 507

Russia

post 05-Янв-2016 23:31

[Цитировать] 

Шишкина Школа. Русский язык

pic
Страна: Россия
Тематика: Передача для детей
Тип раздаваемого материала: Видеоурок
Продолжительность: 08:36:33
Год выпуска: 2010

Язык: Русский
Перевод: Отсутствует

Описание: Цикл образовательных программ для детей дошкольного возраста.
Зачем изучать язык, который мы, казалось бы, и так знаем? На этот вопрос ответит на уроках Василиса, учительница русского языка. Оказывается, узнавать родной язык очень интересно! А начинается он с букв — у каждой свой характер, свой нрав. Удивительные истории о словах-перевёртышах и словах-близнецах ждут тех, кто усвоит азбуку. Уроки русского языка для малышей в лесной школе всегда проходят в игровой форме, скучно на них не бывает!

Доп. информация: Видеоуроки русского языка для детей могут быть использованы не только для семейного просмотра, но и для показа на занятиях в дошкольных учреждениях.

Качество: SATRip
Формат: AVI
Видео кодек: XviD
Аудио кодек: MP3
Видео: XviD, 720x544, (4:3), ~1360kbps avg, 0.14 bit/pixel, 25 fps
Аудио: 48.100 kHz, MPEG Layer 3, 2 ch, 106.00 kbps avg
Скриншоты
pic pic pic
Список серий
01. Буква А;
02. Буква О;
03. Буква У;
04. Буква И;
05. Буква Ы;
06. Буква К;
07. Буква Н;
08. Буква С;
09. Буква Р;
10. Буква Т;
11. Буква В;
12. Буква Е;
13. Буква Ж;
14. Буква Ё;
15. Буква П;
16. Буква М;
17.Буква З. Ударение;
18. Буква Д. Однокоренные слова;
19. Буква Б;
20. Буква Я;
21. Буква Ц;
22. Буква Г;
23. Буква Ш;
24. Буква Ф;
25. Буква Х;
26. Буква Ь;
27. Буква Ъ;
28. Буква Ч;
29. Буква Ю;
30. Буква Й;
31. Буква Щ;
32. Буква Э;
33. Буква Л;
34. Омонимы;
35. Суффиксы;
36. Приставки;
37. Антонимы и синонимы;
38. Знаки препинания;
39. Как Зубок буквы забыл;
40. Азбука;
41. Повторение азбуки (1 часть);
42. Повторение азбуки (2 часть);
43. Повторение азбуки (3 часть);
44. Звонкие и глухие согласные;
45. Слоги (1 часть);
46. Слоги (2 часть);
47. Игра в прятки;
48. Ударение (1 часть);
49. Ударение (2 часть). Безударные гласные;
50. Мягкий и твёрдый знаки;
51. Парные и непарные согласные;
52. Гласные-сестрички;
53. Твёрдые и мягкие звуки;
54. Упрямые согласные;
55. Правописание ЖИ-ШИ и ЧА-ЩА;
56. ЧУ и ЩУ. Пиши правильно;
57. Написание ЧК и ЧН;
58. Непроизносимые согласные;
59. Имя собственное;
60. Одушевленное и неодушевленное;
61. Имя существительное как часть речи;
62. Единственное и множественное число имён существительных;
63. Сложные слова в русском языке;
64. Существительные мужского и женского рода;
65. Существительные среднего рода. Общий род;
66. Имя прилагательное как часть речи;
67. Местоимения в русском языке;
68. Притяжательные местоимения и прилагательные;
69. Глагол. Род глагола;
70. Времена глаголов в русском языке;
71. Совершенный и несовершенный вид глаголов;
72. Наклонение глагола. Глаголы-мечтатели и глаголы-повелители;
73. Наречия в русском языке;
74. Имя числительное;
75. Предлог как часть речи;
76. Предложение. Построение предложения;
Отчет MediaInfo
General
Complete name: F:\Детям\Передачи\ТК Союз\Шишкин Лес\Шишкина Школа\Русский язык\06. Буква К.avi
Format: AVI
Format/Info: Audio Video Interleave
File size: 65.0 MiB
Duration: 6mn 20s
Overall bit rate mode: Variable
Overall bit rate: 1 433 Kbps
Writing application: VirtualDubMod 1.5.4.1 (build 2178/release)
Writing library: VirtualDubMod build 2178/release

Video
ID: 0
Format: MPEG-4 Visual
Format settings, BVOP: 1
Format settings, QPel: No
Format settings, GMC: No warppoints
Format settings, Matrix: Default (H.263)
Muxing mode: Packed bitstream
Codec ID: DX50
Codec ID/Hint: DivX 5
Duration: 6mn 20s
Bit rate: 1 313 Kbps
Width: 720 pixels
Height: 544 pixels
Display aspect ratio: 4:3
Frame rate: 25.000 fps
Color space: YUV
Chroma subsampling: 4:2:0
Bit depth: 8 bits
Scan type: Progressive
Compression mode: Lossy
Bits/(Pixel*Frame): 0.134
Stream size: 59.6 MiB (92%)
Writing library: DivX 6.8.5 (UTC 2009-08-20)

Audio
ID: 1
Format: MPEG Audio
Format version: Version 1
Format profile: Layer 3
Mode: Joint stereo
Mode extension: MS Stereo
Codec ID: 55
Codec ID/Hint: MP3
Duration: 6mn 20s
Bit rate mode: Variable
Bit rate: 107 Kbps
Channel(s): 2 channels
Sampling rate: 48.0 KHz
Compression mode: Lossy
Stream size: 4.85 MiB (7%)
Alignment: Aligned on interleaves
Interleave, duration: 24 ms (0.60 video frame)
Interleave, preload duration: 519 ms
Шишкина Школа. Математика
Шишкина Школа. Музыка
Шишкина Школа. География
Шишкина Школа. Рисование
Download

Войдите на сайт, чтобы увидеть полную информацию.

Как скачивать  ·   Правила трекера

[Профиль]  [ЛС] 

trash50

Стаж: 3 года 11 месяцев

Сообщений: 148

post 06-Янв-2016 20:42 (спустя 21 час)

[Цитировать] 

Спасибо.
[Профиль]  [ЛС] 

Игорь I

Стаж: 10 лет

Сообщений: 1892

Russia

post 08-Янв-2016 14:23 (спустя 1 день 17 часов)

[Цитировать] 

Благодарю
[Профиль]  [ЛС] 

trash50

Стаж: 3 года 11 месяцев

Сообщений: 148

post 17-Янв-2016 20:13 (спустя 9 дней)

[Цитировать] 

Да. Русский язык, который мы, казалось бы, и так знаем?
[Профиль]  [ЛС] 

trash50

Стаж: 3 года 11 месяцев

Сообщений: 148

post 20-Мар-2016 18:04 (спустя 2 месяца 2 дня)

[Цитировать] 

Поддержу раздачу
[Профиль]  [ЛС] 
Показать сообщения:    
Ответить на тему

Текущее время: 23-Окт 22:01

Часовой пояс: GMT + 4



Вы не можете начинать темы
Вы не можете отвечать на сообщения
Вы не можете редактировать свои сообщения
Вы не можете удалять свои сообщения
Вы не можете голосовать в опросах
Вы не можете прикреплять файлы к сообщениям
Вы не можете скачивать файлы