Loading...
Error

Джузеппе Москати: исцеляющая любовь / Giuseppe Moscati: Doctor to the Poor (Джакомо Кампиотти / Giacomo Campiotti) [2007 г., драма, биографический, DVDRip]

Ответить на тему
Статистика раздачи
   
 
Автор Сообщение

pk2012

Стаж: 7 лет 10 месяцев

Сообщений: 71

Откуда: Зерноград

Russia

post 15-Ноя-2014 18:55

[Цитировать] 

Джузеппе Москати: исцеляющая любовь / Giuseppe Moscati: Doctor to the Poor

pic
Год выпуска: 2007
Страна: Италия
Жанр: драма, биографический
Продолжительность: 02:56:47
Перевод: Профессиональный (многоголосый, закадровый) ГТРК Культура

Режиссер: Джакомо Кампиотти / Giacomo Campiotti

В фильме снимались: Беппе Фиорелло, Касия Смутняк, Этторе Басси, Паола Каселла, Джорджо Коланджели, Марко Гамбино, Эмануэла Гримальда, Антонелла Стефануччи, Джузеппе Зено

Описание: Джузеппе Москати (25 июля 1880 - 12 апреля 1927) - итальянский врач, научный сотрудник, профессор университета, святой Римско-католической церкви. В основу сюжета легла биография этого неаполитанского врача, а также людей живших и работавших в одном время с ним.

Дополнительная информация: на трэкере уже есть этот фильм, но в данном релизе вырезаны постельные сцены + более высокое качество изображения

Качество: DVDRip
Формат: AVI
Видео кодек: XviD
Аудио кодек: AC3
Видео: Xvid 720x416 25fps 2154kbps
Аудио: русский, Dolby AC3 48000Hz stereo 192kbps
MediaInfo


General
Complete name : Giuseppe Moscati DVDrip-rus\Giuseppe Moscati-1.avi
Format : AVI
Format/Info : Audio Video Interleave
File size : 1.45 GiB
Duration : 1h 27mn
Overall bit rate : 2 357 Kbps
Writing application : VirtualDubMod 1.5.10.2 (build 2540/release)
Writing library : VirtualDubMod build 2540/release
Video
ID : 0
Format : MPEG-4 Visual
Format profile : Advanced Simple@L5
Format settings, BVOP : Yes
Format settings, QPel : No
Format settings, GMC : No warppoints
Format settings, Matrix : Default (MPEG)
Codec ID : XVID
Codec ID/Hint : XviD
Duration : 1h 27mn
Bit rate : 2 155 Kbps
Width : 720 pixels
Height : 416 pixels
Display aspect ratio : 16:9
Frame rate : 25.000 fps
Color space : YUV
Chroma subsampling : 4:2:0
Bit depth : 8 bits
Scan type : Progressive
Bits/(Pixel*Frame) : 0.288
Stream size : 1.32 GiB (91%)
Writing library : XviD 64
Audio
ID : 1
Format : AC-3
Format/Info : Audio Coding 3
Mode extension : CM (complete main)
Codec ID : 2000
Duration : 1h 27mn
Bit rate mode : Constant
Bit rate : 192 Kbps
Channel(s) : 2 channels
Channel positions : Front: L R
Sampling rate : 48.0 KHz
Bit depth : 16 bits
Stream size : 121 MiB (8%)
Alignment : Split accross interleaves
Interleave, duration : 40 ms (1.00 video frame)
Interleave, preload duration : 500 ms
Скриншоты:
pic pic pic pic
Download

Войдите на сайт, чтобы увидеть полную информацию.

Как скачивать  ·   Правила трекера

[Профиль]  [ЛС] 

Галина о.

Стаж: 3 года 3 месяца

Сообщений: 2

Russia

post 21-Сен-2015 18:11 (спустя 10 месяцев)

[Цитировать] 

фильм понравился спокойный добрый, и у нас такие врачи тоже в были...
[Профиль]  [ЛС] 
Показать сообщения:    
Ответить на тему

Текущее время: 24-Сен 03:36

Часовой пояс: GMT + 4



Вы не можете начинать темы
Вы не можете отвечать на сообщения
Вы не можете редактировать свои сообщения
Вы не можете удалять свои сообщения
Вы не можете голосовать в опросах
Вы не можете прикреплять файлы к сообщениям
Вы не можете скачивать файлы