Loading...
Error

Хмель (Виктор Трегубович) [1991 г., Историческая драма, DVDRip]

Ответить на тему
Статистика раздачи
Скачали: [ 7 ]
   
 
Автор Сообщение

Андрей64

post 03-Мар-2013 18:27

[Цитировать] 

Хмель (1991) DVDRip

pic
Год выпуска: 1991
Жанр: Историческая драма
Киностудия: "Ладога", Ленфильм
Продолжительность: 03:45:48

Режиссер: Виктор Трегубович

В фильме снимались: Федор Одиноков, Марина Трегубович, Александр Блок, Андрей Пономарев, Виктор Трегубович, Алексей Булдаков, Александр Завьялов, Юрий Дубровин, Александр Суснин, Михаил Силантьев, Борис Аракелов, Николай Сытин, Борис Павлов-Сильванский, Валентин Клементьев, Всеволод Кузнецов, Сергей Выборнов, Кира Данилова, Юрий Захаревич, Юрий Кузнецов, Владимир Еремин, Виктор Бычков, Геннадий Богачев

Описание:

Перед вами экранизация первой части знаменитой трилогии романиста Алексея Черкасова, посвященной старообрядцам Сибири. Это роман о конфликте веры и цивилизации, нового и старого, общественного и личного… На экране разыгрывается драма необычной жизни, история любви и страстей человеческих. Перед глазами возникают картины старинного сибирского быта, как живая, встает тайга, подвластная только сильному духу. «Хмель» воссоздает события от восстания декабристов до потрясений начала XX века. Всего же действие в трилогии «Хмель», «Конь Рыжий», «Черный тополь» продолжается свыше ста лет.
Фильм первый - Крепость
Фильм второй - Исход



Качество: DVDRip
Формат: AVI
Видео кодек: XviD
Аудио кодек: MPEG Audio
Видео: 720x480 (1.50:1), 25 fps, XviD build 47 ~1822 kbps avg, 0.21 bit/pixel;
Аудио: 48 kHz, Microsoft MPEG, 2 ch, ~224.00 kbps avg

pic pic
скрытый текст
Общее
Полное имя : Hmel _1991\Фильм 1 Крепость.avi
Формат : AVI
Формат/Информация : Audio Video Interleave
Размер файла : 1,37 Гбайт
Продолжительность : 1 ч. 35 м.
Общий поток : 2053 Кбит/сек
Программа кодирования : VirtualDubMod 1.5.4.1 (build 2178/release)
Библиотека кодирования : VirtualDubMod build 2178/release

Видео
Идентификатор : 0
Формат : MPEG-4 Visual
Профиль формата : Advanced Simple@L5
Параметр BVOP формата : 1
Параметр QPel формата : Нет
Параметр GMC формата : Без точки перехода
Параметр матрицы формата : Выборочная
Идентификатор кодека : XVID
Идентификатор кодека/Подсказка : XviD
Продолжительность : 1 ч. 35 м.
Битрейт : 1822 Кбит/сек
Ширина : 720 пикселей
Высота : 480 пикселей
Соотношение сторон : 3:2
Частота кадров : 25,000 кадров/сек
Стандарт вещания : NTSC
Цветовое пространство : YUV
Субдискретизация насыщенности : 4:2:0
Битовая глубина : 8 бит
Тип развёртки : Прогрессивная
Метод сжатия : С потерями
Бит/(Пиксели*Кадры) : 0.211
Размер потока : 1,21 Гбайт (89%)
Библиотека кодирования : XviD 1.2.0.dev47 (UTC 2006-11-01)

Аудио
Идентификатор : 1
Формат : MPEG Audio
Версия формата : Version 1
Профиль формата : Layer 2
Идентификатор кодека : 50
Продолжительность : 1 ч. 35 м.
Вид битрейта : Постоянный
Битрейт : 224 Кбит/сек
Каналы : 2 канала
Частота : 48,0 КГц
Метод сжатия : С потерями
Размер потока : 153 Мбайт (11%)
Выравнивание : Соединение по промежуткам
Продолжительность промежутка : 80 мс. (2,00 видеокадра)
Время предзагрузки промежутка : 504 мс.

-------------------------------------------------------------------------------------------------------------------------------------------------------------------------------------------------------

Общее
Полное имя : Hmel _1991\Фильи 2 Исход.avi
Формат : AVI
Формат/Информация : Audio Video Interleave
Профиль формата : OpenDML
Размер файла : 2,05 Гбайт
Продолжительность : 2 ч. 10 м.
Общий поток : 2249 Кбит/сек
Программа кодирования : VirtualDubMod 1.5.4.1 (build 2178/release)
Библиотека кодирования : VirtualDubMod build 2178/release

Видео
Идентификатор : 0
Формат : MPEG-4 Visual
Профиль формата : Advanced Simple@L5
Параметр BVOP формата : 1
Параметр QPel формата : Нет
Параметр GMC формата : Без точки перехода
Параметр матрицы формата : Выборочная
Идентификатор кодека : XVID
Идентификатор кодека/Подсказка : XviD
Продолжительность : 2 ч. 10 м.
Битрейт : 2016 Кбит/сек
Ширина : 720 пикселей
Высота : 496 пикселей
Соотношение сторон : 3:2
Частота кадров : 25,000 кадров/сек
Цветовое пространство : YUV
Субдискретизация насыщенности : 4:2:0
Битовая глубина : 8 бит
Тип развёртки : Прогрессивная
Метод сжатия : С потерями
Бит/(Пиксели*Кадры) : 0.226
Размер потока : 1,84 Гбайт (90%)
Библиотека кодирования : XviD 1.2.0.dev47 (UTC 2006-11-01)

Аудио
Идентификатор : 1
Формат : MPEG Audio
Версия формата : Version 1
Профиль формата : Layer 2
Идентификатор кодека : 50
Продолжительность : 2 ч. 10 м.
Вид битрейта : Постоянный
Битрейт : 224 Кбит/сек
Каналы : 2 канала
Частота : 48,0 КГц
Метод сжатия : С потерями
Размер потока : 209 Мбайт (10%)
Выравнивание : Соединение по промежуткам
Продолжительность промежутка : 80 мс. (2,00 видеокадра)
Время предзагрузки промежутка : 504 мс.
Скриншоты:

pic pic pic pic pic
pic pic pic pic pic
Download

Войдите для скачивания торрент-файла

Как скачивать  ·   Правила трекера

 

Ox!

Стаж: 5 лет 11 месяцев

Сообщений: 13

post 01-Окт-2013 13:50 (спустя 6 месяцев)

[Цитировать] 

Тут полно сидеров (3,42 GB): http://rutracker.org/forum/viewtopic.php?t=2585986
[Профиль]  [ЛС] 

aspire7750

Стаж: 4 года

Сообщений: 1

post 15-Окт-2013 01:30 (спустя 13 дней)

[Цитировать] 

Фильм очень понравился,спасибо
[Профиль]  [ЛС] 
Показать сообщения:    
Ответить на тему

Текущее время: 25-Май 05:04

Часовой пояс: GMT + 4



Вы не можете начинать темы
Вы не можете отвечать на сообщения
Вы не можете редактировать свои сообщения
Вы не можете удалять свои сообщения
Вы не можете голосовать в опросах
Вы не можете прикреплять файлы к сообщениям
Вы не можете скачивать файлы