Loading...
Error

Мусульманин (Владимир Хотиненко) [1995 г., Драма, DVDRip]

Ответить на тему
Статистика раздачи
   
 
Автор Сообщение

corvin

Стаж: 7 лет

Сообщений: 25

Откуда: Москва

Russia

post 29-Янв-2012 13:14

[Цитировать] 

Мусульманин

pic
Жанр: драма
Год выпуска: 1995
Продолжительность: 01:46:42

Режиссёр: Владимир Хотиненко

В ролях: Миронов Евгений Витальевич, Усатова Нина Николаевна, Балуев Александр Николаевич, Германова Евдокия Алексеевна, Игорь Бортник, Ильин Владимир Адольфович, Зайченко Пётр Петрович

Описание: Рядовой Николай Иванов (Евгений Миронов) пробыл в плену у моджахеддов 7 лет. Когда его вели расстреливать, проезжавший мимо крестьянин выкупил Николая, и тот заменил ему убитого сына. В родное село парень вернулся мусульманином в самом лучшем понимании этого слова. Но понимания среди односельчан и родных он не встретил. Напротив, восприняли это враждебно. Кончается фильм трагедией, но не безнадежностью. Есть выход к свету, и некоторые его находят. Никто ведь и не говори, что спасены будут все. Просто шанс есть у всех.

Семпл: https://multi-up.com/974998

Качество видео: DVDRip-AVC
Формат видео: MKV

Видео: 678@724@452, 25.000 fps, x264 High@L4.1, ~1740 kbps
Аудио: 48 kHz, AC3 Dolby Digital, 2/0 (L,R) ch, ~224 kbps
MediaInfo
FillMargins(0, 1, 0, 0)
raw [info]: 678x452p 16:15 @ 25/1 fps (cfr)
x264 [info]: using SAR=16/15
x264 [info]: using cpu capabilities: MMX2 SSE2Fast SSSE3 SSE4.2 AVX
x264 [info]: profile High, level 4.1

x264 [info]: frame I:52 Avg QP:14.31 size: 56882
x264 [info]: frame P:590 Avg QP:17.39 size: 19272
x264 [info]: frame B:1868 Avg QP:19.11 size: 4021
x264 [info]: consecutive B-frames: 4.2% 2.4% 16.5% 15.0% 18.9% 43.0%
x264 [info]: mb I I16..4: 11.1% 59.3% 29.6%
x264 [info]: mb P I16..4: 0.5% 7.4% 3.1% P16..4: 27.6% 34.5% 17.4% 5.5% 1.2% skip: 2.7%
x264 [info]: mb B I16..4: 0.0% 0.6% 0.3% B16..8: 35.4% 21.4% 2.9% direct: 4.9% skip:34.5% L0:34.0% L1:43.1% BI:22.9%
x264 [info]: 8x8 transform intra:63.6% inter:45.5%
x264 [info]: direct mvs spatial:97.1% temporal:2.9%
x264 [info]: coded y,uvDC,uvAC intra: 89.8% 84.4% 63.9% inter: 27.7% 19.1% 9.6%
x264 [info]: i16 v,h,dc,p: 15% 5% 33% 47%
x264 [info]: i8 v,h,dc,ddl,ddr,vr,hd,vl,hu: 14% 13% 8% 8% 11% 11% 11% 12% 13%
x264 [info]: i4 v,h,dc,ddl,ddr,vr,hd,vl,hu: 36% 10% 5% 6% 9% 9% 8% 8% 8%
x264 [info]: i8c dc,h,v,p: 33% 31% 21% 15%
x264 [info]: Weighted P-Frames: Y:3.9% UV:0.5%
x264 [info]: ref P L0: 52.2% 12.0% 17.4% 4.1% 3.9% 2.5% 2.4% 1.1% 1.1% 0.8% 0.8% 0.6% 0.6% 0.4% 0.2% 0.0%
x264 [info]: ref B L0: 91.1% 5.6% 1.2% 0.6% 0.4% 0.3% 0.2% 0.1% 0.1% 0.1% 0.1% 0.1% 0.0%
x264 [info]: ref B L1: 97.5% 2.5%
x264 [info]: kb/s:1740.29
Общее
Уникальный идентификатор : 195031392769661901131976273927491028315 (0x92B9AE10BFA71067A9B359EBB9E0055B)
Полное имя : D:\Мусульманин_1995-DVDRip-AVC.mkv
Формат : Matroska
Версия формата : Version 2
Размер файла : 1,46 Гбайт
Продолжительность : 1 ч. 46 м.
Общий поток : 1965 Кбит/сек
Дата кодирования : UTC 2014-05-20 10:52:27
Программа кодирования : mkvmerge v5.2.0 ('I can't explain') built on Dec 18 2011 18:12:03
Библиотека кодирования : libebml v1.2.3 + libmatroska v1.3.0

Видео
Идентификатор : 1
Формат : AVC
Формат/Информация : Advanced Video Codec
Профиль формата : High@L4.1
Параметр CABAC формата : Да
Параметр ReFrames формата : 14 кадров
Идентификатор кодека : V_MPEG4/ISO/AVC
Продолжительность : 1 ч. 46 м.
Битрейт : 1739 Кбит/сек
Ширина : 678 пикселей
Высота : 452 пикселя
Соотношение сторон : 16:10
Соотношение сторон в оригинале : 16:10
Режим частоты кадров : Постоянный
Частота кадров : 25,000 кадров/сек
Цветовое пространство : YUV
Субдискретизация насыщенности : 4:2:0
Битовая глубина : 8 бит
Тип развёртки : Прогрессивная
Бит/(Пиксели*Кадры) : 0.227
Размер потока : 1,27 Гбайт (87%)
Библиотека кодирования : x264 core 130 r2273 b3065e6
Настройки программы : cabac=1 / ref=14 / deblock=1:-2:-2 / analyse=0x3:0x133 / me=umh / subme=11 / psy=1 / psy_rd=1.05:0.15 / mixed_ref=1 / me_range=24 / chroma_me=1 / trellis=2 / 8x8dct=1 / cqm=0 / deadzone=21,11 / fast_pskip=0 / chroma_qp_offset=-3 / threads=12 / lookahead_threads=1 / sliced_threads=0 / nr=0 / decimate=0 / interlaced=0 / bluray_compat=0 / constrained_intra=0 / bframes=5 / b_pyramid=2 / b_adapt=2 / b_bias=0 / direct=3 / weightb=1 / open_gop=0 / weightp=2 / keyint=250 / keyint_min=25 / scenecut=40 / intra_refresh=0 / rc_lookahead=60 / rc=2pass / mbtree=1 / bitrate=1739 / ratetol=1.0 / qcomp=0.70 / qpmin=0 / qpmax=55 / qpstep=4 / cplxblur=20.0 / qblur=0.5 / ip_ratio=1.30 / aq=1:1.00
Язык : English
Default : Да
Forced : Нет
Основные цвета : BT.601 PAL
Характеристики трансфера : BT.470 System B, BT.470 System G
Коэффициенты матрицы : BT.601

Аудио
Идентификатор : 2
Формат : AC-3
Формат/Информация : Audio Coding 3
Расширение режима : CM (complete main)
Параметр Endianness формата : Big
Идентификатор кодека : A_AC3
Продолжительность : 1 ч. 46 м.
Вид битрейта : Постоянный
Битрейт : 224 Кбит/сек
Каналы : 2 канала
Расположение каналов : Front: L R
Частота : 48,0 КГц
Битовая глубина : 16 бит
Метод сжатия : С потерями
Размер потока : 171 Мбайт (11%)
Язык : Russian
Default : Да
Forced : Нет
Скриншоты
pic pic pic pic pic pic pic pic pic pic pic pic pic pic pic pic pic pic pic pic pic
Download

Войдите на сайт, чтобы увидеть полную информацию.

Как скачивать  ·   Правила трекера

[Профиль]  [ЛС] 

Странник*

post 04-Июл-2012 02:01 (спустя 5 месяцев 5 дней)

[Цитировать] 

Его уже один раз убирали с трекера."Хвалящий чужую веру, свою хулит".
Спаси,Господи.
 

Соколик

Стаж: 7 лет 7 месяцев

Сообщений: 21

post 24-Июл-2012 09:56 (спустя 20 дней)

[Цитировать] 

Фильм апологетический, вот только с неправославных позиций, а транслировали этот фильм по ОРТ во время обеих Чеченских компаний, когда наших братьев во Христе убивали, причём долго, только за нежелание снять крест. ОРТшники ещё тогда поступали, как люди совесть потерявшие... Извините, фильм сей ни к чему держать на трекере
[Профиль]  [ЛС] 
Показать сообщения:    
Ответить на тему

Текущее время: 14-Ноя 19:26

Часовой пояс: GMT + 4



Вы не можете начинать темы
Вы не можете отвечать на сообщения
Вы не можете редактировать свои сообщения
Вы не можете удалять свои сообщения
Вы не можете голосовать в опросах
Вы не можете прикреплять файлы к сообщениям
Вы не можете скачивать файлы