Loading...
Error

...за имя Мое (Мария Можар) [2005 г., Драма, DVDRip]

Ответить на тему
Статистика раздачи
Скачали: [ 8 ]
   
 
Автор Сообщение

AFANATOS

Стаж: 7 лет 1 месяц

Сообщений: 23

Russia

post 02-Янв-2012 13:49

[Цитировать] 

...за имя Мое

pic
Год выпуска: 2005
Жанр: Драма
Продолжительность: 27:30 (короткометражный)

Режиссер: Мария Можар

В фильме снимались: Мария Корнеева, Владимир Егоров, Елена Валюшина, Александра Назарова, Данила Рассомахин, Павел Рассомахин, Саша Матюкова, Анатолий Щербаков.

Описание: Фильм рассказывает нам о русской деревне во время Великой Отечественной войны. Его герои – это женщины, ожидающие своих мужей, священник, приютивший брошенную девочку. Когда на пути затравленного ребенка появляется отец Александр, начинается новая история - история приручения и любви, а главное – любовь и вера во Христа Спасителя.

Дополнительная информация: Курсовая работа студентки режиссерского факультета Марии Можар. Мастерская Е.И. Ташкова и А.В. Сурина. Дипломная работа студента операторского факультета Виталия Ершова. Мастерская Л.И. Калашникова и А.Г. Рыбина.
Фильм получил призы за лучший фильм, лучший сценарий, лучшую операторскую работу на 25 международном фестивале ВГИК, приз «Бронзовый Витязь» на 14 Международном кинофестивале «Золотой Витязь», диплом за лучший дебют на Первом всероссийском Сретенском православном кинофестивале «Встреча».
Рип сделан из файлов этой раздачи: http://pravtor.ru/viewtopic.php?t=730

Качество: DVDRip
Формат: AVI
Видео кодек: XviD
Аудио кодек: AC3
Видео: 640x432 (1.48:1), 25 fps, XviD MPEG-4 ~2727 kbps avg, 0.39 bit/pixel
Аудио: 48 kHz, AC3 Dolby Digital, 2/0 (L,R) ch, ~192 kbps
MediaInfo
Общее
Полное имя : За имя Мое.avi
Формат : AVI
Формат/Информация : Audio Video Interleave
Размер файла : 580 Мбайт
Продолжительность : 27 м.
Общий поток : 2929 Кбит/сек
Название фильма : ...за имя Мое / Мария Можар / 2005
Режиссёр : AFANATOS
Программа кодирования : VirtualDubMod 1.5.10.3 (build 2550/release)

Видео
Идентификатор : 0
Формат : MPEG-4 Visual
Профиль формата : Advanced Simple@L5
Параметр BVOP формата : 2
Параметр QPel формата : Нет
Параметр GMC формата : Без точки перехода
Параметр матрицы формата : Выборочная
Режим смешивания : Сжатый битовый поток
Идентификатор кодека : XVID
Идентификатор кодека/Подсказка : XviD
Продолжительность : 27 м.
Битрейт : 2727 Кбит/сек
Ширина : 640 пикселей
Высота : 432 пикселя
Соотношение сторон : 3:2
Частота кадров : 25,000 кадров/сек
Цветовое пространство : YUV
Субдискретизация насыщенности : 4:2:0
Битовая глубина : 8 бит
Тип развёртки : Прогрессивная
Метод сжатия : С потерями
Бит/(Пиксели*Кадры) : 0.395
Размер потока : 540 Мбайт (93%)
Библиотека кодирования : XviD 64

Аудио
Идентификатор : 1
Формат : AC-3
Формат/Информация : Audio Coding 3
Расширение режима : CM (complete main)
Параметр Endianness формата : Big
Идентификатор кодека : 2000
Продолжительность : 27 м.
Вид битрейта : Постоянный
Битрейт : 192 Кбит/сек
Каналы : 2 канала
Расположение каналов : Front: L R
Частота : 48,0 КГц
Битовая глубина : 16 бит
Метод сжатия : С потерями
Задержка видео : 8 мс.
Размер потока : 38,0 Мбайт (7%)
Выравнивание : Разделение по промежуткам
Продолжительность промежутка : 40 мс. (1,00 видеокадр)
Время предзагрузки промежутка : 500 мс.
Скриншоты
pic pic pic pic pic pic pic
Download

Войдите для скачивания торрент-файла

Как скачивать  ·   Правила трекера


_________________
Безсмертным себя я не считаю - я верю в Страшный Суд Господень.


Последний раз редактировалось: AFANATOS (2013-01-03 14:17), всего редактировалось 3 раз(а)
[Профиль]  [ЛС] 

AFANATOS

Стаж: 7 лет 1 месяц

Сообщений: 23

Russia

post 02-Янв-2012 20:22 (спустя 6 часов)

[Цитировать] 

Приятного вам всем просмотра добрые христиане.
Меня этот фильм тронул до глубины души, до слез.
Вот я и решил сделать рип, чтобы удобнее было смотреть и на портативных устройствах, коих сейчас очень много. Этот замечательный фильм должны видеть все.

_________________
Безсмертным себя я не считаю - я верю в Страшный Суд Господень.
[Профиль]  [ЛС] 

Фёдорович

Стаж: 6 лет 3 месяца

Сообщений: 123

Russia

post 19-Янв-2012 09:09 (спустя 16 дней)

[Цитировать] 

Спасибо огромное!
[Профиль]  [ЛС] 

undertaker_i

Стаж: 7 лет

Сообщений: 2

Russia

post 29-Фев-2012 22:59 (спустя 1 месяц 10 дней)

[Цитировать] 

Двадцать минут....вся душа на изнанку...
Спаси Господи!
[Профиль]  [ЛС] 

Николай Николаевич

post 02-Мар-2012 15:49 (спустя 1 день 16 часов)

[Цитировать] 

Спаси Господи!
 
Показать сообщения:    
Ответить на тему

Текущее время: 29-Май 02:24

Часовой пояс: GMT + 4



Вы не можете начинать темы
Вы не можете отвечать на сообщения
Вы не можете редактировать свои сообщения
Вы не можете удалять свои сообщения
Вы не можете голосовать в опросах
Вы не можете прикреплять файлы к сообщениям
Вы не можете скачивать файлы