Loading...
Error

(Byzantine.) "Kassia". Византийские гимны... Byzantine hymns from the first female composer of the Occident - 2009, WAVPack (image + .cue), lossless

Ответить на тему
Статистика раздачи
   
 
Автор Сообщение

СЕРГУЛЕТ

Стаж: 11 лет

Сообщений: 2637

Откуда: LA ROMANA

Dominicanrep

post 31-Окт-2011 07:06

[Цитировать] 

"Kassia". Византийские гимны... Byzantine hymns from the first female composer of the Occident

pic
Страна: Germany. "Christophorus"
Жанр: Byzantine.
Год выпуска: 2009
Формат: WAVPack (image + .cue)
Битрейт аудио: lossless
Продолжительность: 00:45:06
Трэклист:
01. Doxazomen sou Christe (Wir preisen, Christus / We Praise, Oh Christ) [1:40]
02. Ek rizis agathis (Aus guter Wurzel / From a Good Root) [1:28]
03. O synapostatis tyrannos (Der mitabtrünnige Tyrann / The Apostate Tyrant) [2:45]
04. O Phariseos (Der Pgarisäer / The Pharisee) [2:23]
05. O Vasilevs tis doxis Christos (Der König der Ehre, Christus / Christ, the King of Glory) [2:56]
06. I Edessa (Edessa) [4:18]
07. Tin pentachordon lyran (Die fünfsaitige Lyra / The Five-stringed Lute) [3:23]
08. Igapisas theophore (Du entbranntest, Gottesträger / O Gog-bearing Father, You Cherished) [3:13]
09. Yper ton Ellinon (Der heidnischen Bildung / Above the Greeks) [1:31]
10. I en polles amarties (Die vielen Sünden verfallene Frau / The Fallen Woman) [3:50]
11. Pelagia (Pelagia) [1:41]
12. Tou stavrou sou i dynamis (Die Kraft Deines Kreuzes / The Power of Your Cross) [2:28]
13. Olvon lipousa patrikon (Den väterlichen Wohlstand zurücklassend / Leaving the Wealth of her Family) [1:41]
14. Petron ke Pavlon (Petrus und Paulus / Peter and Paul) [3:02]
15. Isaïou nyn tou prophitou (Des Propheten Jesaja / Now Isaiah the Prophet) [3:13]
16. I ton lipsanon sou thiki (Das Grab Deines Leichnams / The Tomb of your Remains) [2:26]
17. Avgoustou monarchisantos (Augustus, der Monarch / Augustus, the Monarch) [1:50]
18. Christina martys (Die Märtyrerin Christina / Christina, the Martyr) [1:19]
Дополнительная информация: Исполнители: Sigrid Hausen - mezzo-soprano
Natalia Lincoln - alto
Sabine Lutzenberger - soprano
Sarah M. Newman - soprano
Elisabeth Pawelke - mezzo-soprano
Gerlinde Sämann - soprano
Johann Bengen - santur
Michael Popp - musical direction & various instruments
Отсканированные обложки лежат в раздаче.
EAC log
Exact Audio Copy V0.99 prebeta 5 from 4. May 2009

Отчёт EAC об извлечении, выполненном 22. октября 2011, 23:22

VocaMe / Kassia

Дисковод: PIONEER DVD-RW DVR-219L Adapter: 0 ID: 0

Режим чтения : Достоверность
Использование точного потока : Да
Отключение кэша аудио : Да
Использование указателей C2 : Нет

Коррекция смещения при чтении : 6
Способность читать области Lead-in и Lead-out : Нет
Заполнение пропущенных сэмплов тишиной : Да
Удаление блоков с тишиной в начале и конце : Нет
При вычислениях CRC использовались нулевые сэмплы : Да
Интерфейс : Встроенный Win32-интерфейс для Win NT/2000

Выходной формат : Внутренние WAV-операции
Формат сэмплов : 44.100 Гц; 16 бит; стерео

TOC извлечённого CD

Трек | Старт | Длительность | Начальный сектор | Конечный сектор
---------------------------------------------------------------------
1 | 0:00.00 | 1:40.27 | 0 | 7526
2 | 1:40.27 | 1:27.49 | 7527 | 14100
3 | 3:08.01 | 2:45.15 | 14101 | 26490
4 | 5:53.16 | 2:23.31 | 26491 | 37246
5 | 8:16.47 | 2:56.09 | 37247 | 50455
6 | 11:12.56 | 4:18.36 | 50456 | 69841
7 | 15:31.17 | 3:22.56 | 69842 | 85047
8 | 18:53.73 | 3:12.66 | 85048 | 99513
9 | 22:06.64 | 1:31.35 | 99514 | 106373
10 | 23:38.24 | 3:49.60 | 106374 | 123608
11 | 27:28.09 | 1:40.66 | 123609 | 131174
12 | 29:09.00 | 2:28.12 | 131175 | 142286
13 | 31:37.12 | 1:40.59 | 142287 | 149845
14 | 33:17.71 | 3:01.38 | 149846 | 163458
15 | 36:19.34 | 3:12.56 | 163459 | 177914
16 | 39:32.15 | 2:25.58 | 177915 | 188847
17 | 41:57.73 | 1:49.72 | 188848 | 197094
18 | 43:47.70 | 1:19.00 | 197095 | 203019

Характеристики диапазона извлечения и сообщения об ошибках

Выбранный диапазон

Имя файла C:\Documents and Settings\Agni\Мои документы\EAC\VocaMe - Kassia.wav

Пиковый уровень 99.2 %
Качество диапазона 100.0 %
CRC теста 7748A2A5
CRC копии 7748A2A5
Копирование... OK

Ошибок не произошло

AccurateRip: сводка
Трек 1 точное извлечение (доверие 10) [E8C5EEAE]
Трек 2 точное извлечение (доверие 9) [10677D28]
Трек 3 точное извлечение (доверие 9) [482046F4]
Трек 4 точное извлечение (доверие 10) [1D3546C5]
Трек 5 точное извлечение (доверие 10) [5AC32AF4]
Трек 6 точное извлечение (доверие 10) [A4F8F7C0]
Трек 7 точное извлечение (доверие 10) [C094B645]
Трек 8 точное извлечение (доверие 10) [3DB9AA41]
Трек 9 точное извлечение (доверие 10) [50FFE7C5]
Трек 10 точное извлечение (доверие 10) [20294EC4]
Трек 11 точное извлечение (доверие 9) [5DE944A8]
Трек 12 точное извлечение (доверие 10) [4C498932]
Трек 13 точное извлечение (доверие 10) [B10EBBD5]
Трек 14 точное извлечение (доверие 9) [6AD20F5A]
Трек 15 точное извлечение (доверие 10) [21C2E5DF]
Трек 16 точное извлечение (доверие 10) [067D1412]
Трек 17 точное извлечение (доверие 9) [406E4378]
Трек 18 точное извлечение (доверие 10) [C2EA9000]
Все треки извлечены точно

Конец отчёта
Download

Войдите на сайт, чтобы увидеть полную информацию.

Как скачивать  ·   Правила трекера

[Профиль]  [ЛС] 

Alena282010

Стаж: 7 лет 6 месяцев

Сообщений: 15

Russia

post 14-Фев-2013 21:08 (спустя 1 год 3 месяца)

[Цитировать] 

Спаси Господи! Очень понравилось. Ничего раньше не слышала про преподобную Кассию, песнописицу Константинопольскую.
[Профиль]  [ЛС] 

vika010288

Стаж: 11 лет

Сообщений: 456

Georgia

post 16-Фев-2013 00:55 (спустя 1 день 3 часа)

[Цитировать] 

Благодарю.
[Профиль]  [ЛС] 

Михаил Юрин

Стаж: 3 года 4 месяца

Сообщений: 6

Russia

post 29-Июл-2020 20:09 (спустя 7 лет 5 месяцев)

[Цитировать] 

встаньте пожалуйста на раздачу
[Профиль]  [ЛС] 
Показать сообщения:    
Ответить на тему

Текущее время: 15-Авг 13:54

Часовой пояс: GMT + 4



Вы не можете начинать темы
Вы не можете отвечать на сообщения
Вы не можете редактировать свои сообщения
Вы не можете удалять свои сообщения
Вы не можете голосовать в опросах
Вы не можете прикреплять файлы к сообщениям
Вы не можете скачивать файлы