Loading...
Error

Божий пастырь/Выбор веры (Татьяна Тарасова.Елена Козенкова) [2007 г., Документальный фильм, DVD5]

Ответить на тему
Статистика раздачи
   
 
Автор Сообщение

stepan-frunze

Стаж: 12 лет

Сообщений: 2563

Russia

post 14-Дек-2013 19:02

[Цитировать] 

Божий пастырь/Выбор веры

pic
Год выпуска: 2007
Жанр: Документальный фильм
Продолжительность: 00:40:00 +01:35:38

Режиссер: Татьяна Тарасова.Елена Козенкова

Описание:
"Божий пастырь". О жизни Схиархимандрита Амвросия (Иванова).
Фильм рассказывает о жизни Оптинского старца схиархимандрита Амвросия Иванова (1887-1978), который был насельником Оптиной Пустыни, Пафнутиева Боровского монастыря.
Пострижен в 1911 году в честь Оптинского старца о.Амвросия (Гренкова). Его называли последним Оптинским старцем...
В 1930 году он был сослан в Семипалатинск, где пережил все ужасы той эпохи. Отец Амвросийй явился достоиным продолжателем старчества Оптиной пустыни, став истинным
пастырем и духовным отцом для приходящих к нему со всех концов России людей...

Выбор веры
Фильмы посвящены творчеству замечательного современного художника Павла Рыженко, ученика Ильи Глазунова, автора монументальных исторических полотен на тему, которая стала главной в его творчестве: путь России к стяжанию Христа через трудные эпохи ??? от времён монголо-татарского ига, Смутного времени до братоубийственной гражданской войны XX века???

pic

Качество: DVD5
Формат: DVD Video
Видео кодек: MPEG2
Аудио кодек: AC3
Видео: MPEG 2, 720x576 (4:3), 25.000 fps, 4 929 Kbps (0.475 bit/pixel)
Аудио: AC-3, 48.0 KHz, 2 ch, 192 Kbps, CBR

альтернативные раздачи http://pravtor.ru/viewtopic.php?t=2281 и http://pravtor.ru/viewtopic.php?t=4306
Обложки в раздаче!!!
Скриншоты
pic pic pic pic

pic pic
MediaInfo
Общее
Полное имя : C:\На раздаче\Божий пастырь , Выбор веры\VIDEO_TS\VIDEO_TS.BUP
Формат : DVD Video
Профиль формата : Menu
Размер файла : 8,00 Кбайт
Режим общего битрейта : Переменный

Видео
Идентификатор : 224 (0xE0)
Формат : MPEG Video
Версия формата : Version 1
Вид битрейта : Переменный
Ширина : 720 пикселей
Высота : 480 пикселей
Соотношение сторон : 4:3
Частота кадров : 29,970 кадров/сек
Стандарт вещания : NTSC
Метод сжатия : С потерями

Общее
Полное имя : C:\На раздаче\Божий пастырь , Выбор веры\VIDEO_TS\VIDEO_TS.IFO
Формат : DVD Video
Профиль формата : Menu
Размер файла : 8,00 Кбайт
Режим общего битрейта : Переменный

Видео
Идентификатор : 224 (0xE0)
Формат : MPEG Video
Версия формата : Version 1
Вид битрейта : Переменный
Ширина : 720 пикселей
Высота : 480 пикселей
Соотношение сторон : 4:3
Частота кадров : 29,970 кадров/сек
Стандарт вещания : NTSC
Метод сжатия : С потерями

Общее
Полное имя : C:\На раздаче\Божий пастырь , Выбор веры\VIDEO_TS\VTS_01_0.BUP
Формат : DVD Video
Профиль формата : Program
Размер файла : 88,0 Кбайт
Продолжительность : 1 ч. 6 м.
Режим общего битрейта : Переменный
Общий поток : 179 бит/сек

Видео
Идентификатор : 224 (0xE0)
Формат : MPEG Video
Версия формата : Version 2
Продолжительность : 1 ч. 6 м.
Вид битрейта : Переменный
Ширина : 720 пикселей
Высота : 576 пикселей
Соотношение сторон : 4:3
Частота кадров : 25,000 кадров/сек
Стандарт вещания : PAL
Метод сжатия : С потерями

Аудио
Идентификатор : 128 (0x80)
Формат : AC-3
Формат/Информация : Audio Coding 3
Продолжительность : 1 ч. 6 м.
Каналы : 2 канала
Частота : 48,0 КГц
Метод сжатия : С потерями
Язык : Russian

Меню #1
Продолжительность : 1 ч. 6 м.
00:00:00.000 : Chapter 1
00:03:20.120 : Chapter 2
00:06:39.760 : Chapter 3
00:09:59.920 : Chapter 4
00:16:39.760 : Chapter 5
00:19:59.960 : Chapter 6
00:23:20.040 : Chapter 7
00:26:40.080 : Chapter 8
00:33:20.200 : Chapter 9
00:36:39.840 : Chapter 10
00:39:59.960 : Chapter 11
00:43:19.800 : Chapter 12
00:46:39.880 : Chapter 13
00:50:00.040 : Chapter 14
00:53:20.120 : Chapter 15
00:56:39.800 : Chapter 16
00:59:59.760 : Chapter 17
01:06:49.560 : Chapter 18
List (Audio) : 0

Меню #2
Продолжительность : 38 м.
00:00:00.000 : Chapter 1
00:00:22.000 : Chapter 2
00:00:45.000 : Chapter 3
00:01:07.000 : Chapter 4
00:01:13.000 : Chapter 5
00:01:36.000 : Chapter 6
00:01:58.000 : Chapter 7
00:02:21.000 : Chapter 8
00:03:06.000 : Chapter 9
00:03:29.000 : Chapter 10
00:04:08.000 : Chapter 11
List (Audio) : 0

Общее
Полное имя : C:\На раздаче\Божий пастырь , Выбор веры\VIDEO_TS\VTS_01_0.IFO
Формат : DVD Video
Профиль формата : Program
Размер файла : 88,0 Кбайт
Продолжительность : 1 ч. 6 м.
Режим общего битрейта : Переменный
Общий поток : 179 бит/сек

Видео
Идентификатор : 224 (0xE0)
Формат : MPEG Video
Версия формата : Version 2
Продолжительность : 1 ч. 6 м.
Вид битрейта : Переменный
Ширина : 720 пикселей
Высота : 576 пикселей
Соотношение сторон : 4:3
Частота кадров : 25,000 кадров/сек
Стандарт вещания : PAL
Метод сжатия : С потерями

Аудио
Идентификатор : 128 (0x80)
Формат : AC-3
Формат/Информация : Audio Coding 3
Продолжительность : 1 ч. 6 м.
Каналы : 2 канала
Частота : 48,0 КГц
Метод сжатия : С потерями
Язык : Russian

Меню #1
Продолжительность : 1 ч. 6 м.
00:00:00.000 : Chapter 1
00:03:20.120 : Chapter 2
00:06:39.760 : Chapter 3
00:09:59.920 : Chapter 4
00:16:39.760 : Chapter 5
00:19:59.960 : Chapter 6
00:23:20.040 : Chapter 7
00:26:40.080 : Chapter 8
00:33:20.200 : Chapter 9
00:36:39.840 : Chapter 10
00:39:59.960 : Chapter 11
00:43:19.800 : Chapter 12
00:46:39.880 : Chapter 13
00:50:00.040 : Chapter 14
00:53:20.120 : Chapter 15
00:56:39.800 : Chapter 16
00:59:59.760 : Chapter 17
01:06:49.560 : Chapter 18
List (Audio) : 0

Меню #2
Продолжительность : 38 м.
00:00:00.000 : Chapter 1
00:00:22.000 : Chapter 2
00:00:45.000 : Chapter 3
00:01:07.000 : Chapter 4
00:01:13.000 : Chapter 5
00:01:36.000 : Chapter 6
00:01:58.000 : Chapter 7
00:02:21.000 : Chapter 8
00:03:06.000 : Chapter 9
00:03:29.000 : Chapter 10
00:04:08.000 : Chapter 11
List (Audio) : 0

Общее
Полное имя : C:\На раздаче\Божий пастырь , Выбор веры\VIDEO_TS\VTS_01_0.VOB
Формат : MPEG-PS
Размер файла : 58,0 Кбайт
Продолжительность : 40 мс.
Общий поток : 11,9 Мбит/сек

Видео
Идентификатор : 224 (0xE0)
Формат : MPEG Video
Версия формата : Version 2
Профиль формата : Main@Main
Параметр BVOP формата : Нет
Параметр матрицы формата : Выборочная
Продолжительность : 40 мс.
Максимальный битрейт : 8000 Кбит/сек
Ширина : 720 пикселей
Высота : 576 пикселей
Соотношение сторон : 4:3
Частота кадров : 25,000 кадров/сек
Стандарт вещания : PAL
Цветовое пространство : YUV
Субдискретизация насыщенности : 4:2:0
Битовая глубина : 8 бит
Тип развёртки : Прогрессивная
Порядок развёртки : Верхнее поле первое
Метод сжатия : С потерями
Временной код первого кадра : 00:00:00:00
Оригинал временного кода : Group of pictures header

Текст
Идентификатор : 189 (0xBD)-32 (0x20)
Формат : RLE
Формат/Информация : Run-length encoding
Режим смешивания : DVD-Video

Меню

Общее
Полное имя : C:\На раздаче\Божий пастырь , Выбор веры\VIDEO_TS\VTS_01_1.VOB
Формат : MPEG-PS
Размер файла : 1024 Мбайт
Продолжительность : 27 м.
Режим общего битрейта : Переменный
Общий поток : 5224 Кбит/сек

Видео
Идентификатор : 224 (0xE0)
Формат : MPEG Video
Версия формата : Version 2
Профиль формата : Main@Main
Параметр BVOP формата : Да
Параметр матрицы формата : Выборочная
Параметр GOP формата : Variable
Продолжительность : 27 м.
Вид битрейта : Переменный
Битрейт : 4928 Кбит/сек
Ширина : 720 пикселей
Высота : 576 пикселей
Соотношение сторон : 4:3
Частота кадров : 25,000 кадров/сек
Стандарт вещания : PAL
Цветовое пространство : YUV
Субдискретизация насыщенности : 4:2:0
Битовая глубина : 8 бит
Метод сжатия : С потерями
Бит/(Пиксели*Кадры) : 0.475
Размер потока : 966 Мбайт (94%)

Аудио
Идентификатор : 189 (0xBD)-128 (0x80)
Формат : AC-3
Формат/Информация : Audio Coding 3
Расширение режима : CM (complete main)
Параметр Endianness формата : Big
Режим смешивания : DVD-Video
Продолжительность : 27 м.
Вид битрейта : Постоянный
Битрейт : 192 Кбит/сек
Каналы : 2 канала
Расположение каналов : Front: L R
Частота : 48,0 КГц
Битовая глубина : 16 бит
Метод сжатия : С потерями
Задержка видео : -50 мс.
Размер потока : 37,6 Мбайт (4%)

Меню

Общее
Полное имя : C:\На раздаче\Божий пастырь , Выбор веры\VIDEO_TS\VTS_01_2.VOB
Формат : MPEG-PS
Размер файла : 1024 Мбайт
Продолжительность : 27 м.
Режим общего битрейта : Переменный
Общий поток : 5252 Кбит/сек

Видео
Идентификатор : 224 (0xE0)
Формат : MPEG Video
Версия формата : Version 2
Профиль формата : Main@Main
Параметр BVOP формата : Да
Параметр матрицы формата : Выборочная
Параметр GOP формата : M=3, N=12
Продолжительность : 27 м.
Вид битрейта : Переменный
Битрейт : 4956 Кбит/сек
Максимальный битрейт : 9000 Кбит/сек
Ширина : 720 пикселей
Высота : 576 пикселей
Соотношение сторон : 4:3
Частота кадров : 25,000 кадров/сек
Стандарт вещания : PAL
Цветовое пространство : YUV
Субдискретизация насыщенности : 4:2:0
Битовая глубина : 8 бит
Тип развёртки : Чересстрочная
Порядок развёртки : Верхнее поле первое
Метод сжатия : С потерями
Бит/(Пиксели*Кадры) : 0.478
Временной код первого кадра : 00:27:24:03
Оригинал временного кода : Group of pictures header
Размер потока : 966 Мбайт (94%)

Аудио
Идентификатор : 189 (0xBD)-128 (0x80)
Формат : AC-3
Формат/Информация : Audio Coding 3
Расширение режима : CM (complete main)
Параметр Endianness формата : Big
Режим смешивания : DVD-Video
Продолжительность : 27 м.
Вид битрейта : Постоянный
Битрейт : 192 Кбит/сек
Каналы : 2 канала
Расположение каналов : Front: L R
Частота : 48,0 КГц
Битовая глубина : 16 бит
Метод сжатия : С потерями
Задержка видео : -168 мс.
Размер потока : 37,4 Мбайт (4%)

Меню

Общее
Полное имя : C:\На раздаче\Божий пастырь , Выбор веры\VIDEO_TS\VTS_01_3.VOB
Формат : MPEG-PS
Размер файла : 1024 Мбайт
Режим общего битрейта : Переменный

Видео
Идентификатор : 224 (0xE0)
Формат : MPEG Video
Версия формата : Version 2
Профиль формата : Main@Main
Параметр BVOP формата : Да
Параметр матрицы формата : Выборочная
Параметр GOP формата : M=3, N=12
Вид битрейта : Переменный
Максимальный битрейт : 9000 Кбит/сек
Ширина : 720 пикселей
Высота : 576 пикселей
Соотношение сторон : 4:3
Частота кадров : 25,000 кадров/сек
Стандарт вещания : PAL
Цветовое пространство : YUV
Субдискретизация насыщенности : 4:2:0
Битовая глубина : 8 бит
Тип развёртки : Чересстрочная
Порядок развёртки : Верхнее поле первое
Метод сжатия : С потерями
Временной код первого кадра : 00:54:39:14
Оригинал временного кода : Group of pictures header

Аудио
Идентификатор : 189 (0xBD)-128 (0x80)
Формат : AC-3
Формат/Информация : Audio Coding 3
Расширение режима : CM (complete main)
Параметр Endianness формата : Big
Режим смешивания : DVD-Video
Вид битрейта : Постоянный
Битрейт : 192 Кбит/сек
Каналы : 2 канала
Расположение каналов : Front: L R
Частота : 48,0 КГц
Битовая глубина : 16 бит
Метод сжатия : С потерями
Задержка видео : -216 мс.

Меню

Общее
Полное имя : C:\На раздаче\Божий пастырь , Выбор веры\VIDEO_TS\VTS_01_4.VOB
Формат : MPEG-PS
Размер файла : 917 Мбайт
Продолжительность : 24 м.
Режим общего битрейта : Переменный
Общий поток : 5259 Кбит/сек

Видео
Идентификатор : 224 (0xE0)
Формат : MPEG Video
Версия формата : Version 2
Профиль формата : Main@Main
Параметр BVOP формата : Да
Параметр матрицы формата : Выборочная
Параметр GOP формата : Variable
Продолжительность : 24 м.
Вид битрейта : Переменный
Битрейт : 4962 Кбит/сек
Максимальный битрейт : 9000 Кбит/сек
Ширина : 720 пикселей
Высота : 576 пикселей
Соотношение сторон : 4:3
Частота кадров : 25,000 кадров/сек
Стандарт вещания : PAL
Цветовое пространство : YUV
Субдискретизация насыщенности : 4:2:0
Битовая глубина : 8 бит
Тип развёртки : Чересстрочная
Порядок развёртки : Верхнее поле первое
Метод сжатия : С потерями
Бит/(Пиксели*Кадры) : 0.479
Временной код первого кадра : 00:13:55:22
Оригинал временного кода : Group of pictures header
Размер потока : 865 Мбайт (94%)

Аудио
Идентификатор : 189 (0xBD)-128 (0x80)
Формат : AC-3
Формат/Информация : Audio Coding 3
Расширение режима : CM (complete main)
Параметр Endianness формата : Big
Режим смешивания : DVD-Video
Продолжительность : 24 м.
Вид битрейта : Постоянный
Битрейт : 192 Кбит/сек
Каналы : 2 канала
Расположение каналов : Front: L R
Частота : 48,0 КГц
Битовая глубина : 16 бит
Метод сжатия : С потерями
Задержка видео : -208 мс.
Размер потока : 33,5 Мбайт (4%)

Меню
DVDinfo
Title: Божий пастырь , Выбор веры
Size: 3.90 Gb ( 4 084 620,00 KBytes ) - DVD-5
Enabled regions: 1, 2, 3, 4, 5, 6, 7, 8

VTS_01 :
Play Length: 01:06:59+00:38:28+{01:45:17}+{00:00:10}
Video: PAL 4:3 (720x576) VBR
Audio:
Russian (Dolby AC3, 2 ch)

* Menus Information *

VIDEO_TS Menu
Video:
NTSC 4:3 (720x480) VBR
Auto Pan&Scan, Auto Letterboxed
Russian Language Unit :
Title Menu

VTS_01 Menu
Video:
PAL 4:3 (720x576) VBR
Russian Language Unit :
Root Menu
pic
Download

Войдите на сайт, чтобы увидеть полную информацию.

Как скачивать  ·   Правила трекера



Последний раз редактировалось: stepan-frunze (2014-06-20 01:06), всего редактировалось 14 раз(а)
[Профиль]  [ЛС] 

stepan-frunze

Стаж: 12 лет

Сообщений: 2563

Russia

post 14-Дек-2013 19:37 (спустя 35 минут)

[Цитировать] 

picpic
[Профиль]  [ЛС] 
Показать сообщения:    
Ответить на тему

Текущее время: 21-Апр 05:27

Часовой пояс: GMT + 4



Вы не можете начинать темы
Вы не можете отвечать на сообщения
Вы не можете редактировать свои сообщения
Вы не можете удалять свои сообщения
Вы не можете голосовать в опросах
Вы не можете прикреплять файлы к сообщениям
Вы не можете скачивать файлы