Loading...
Error

Конкурс на лучший урок нравственности (Сборник) [2010 г., Уроки, CamRip]

Ответить на тему
Статистика раздачи
   
 
Автор Сообщение

Yfim

Стаж: 4 года 5 месяцев

Сообщений: 1

Russia

post 25-Мар-2013 17:01

[Цитировать] 

Конкурс на лучший урок нравственности

Лучший подарок для школы

pic
Год выпуска: 2010
Жанр: Уроки
Сайт конкурса: www.u-nrav.narod.ru
Продолжительность: 49 часов 26 минут 24 секунд
Режиссер: Сборник

Описание:

По благословению высокопреосвященство Лазаря, митрополита Симферопольского и Крымского, в 2009-2010 годах в школах Крыма был проведен конкурс на лучший “Урок нравственности”
Организаторы конкурса - Министерство образования и науки АР Крым, Симферопольская и Крымская епархия, Крымский Православный медико-просветительский центр «Жизнь».

Цель конкурса вовлечение в процесс нравственного воспитания преподавателей не только гуманитарных предметов, но и физиков, математиков, биологов, химиков, которые считают своим долгом не только учить, но и воспитывать.

Пробуждение активности нравственно-ориентированных учителей, создание для них условий, при которых они могли бы реализовать свой талант и умение позитивно воздействовать на школьников, а также дальнейшее распространение передового опыта в образовательных учреждениях.

В конкурсе приняли участие более ста учителей.
Проект был презентован на “Международном фестивале социальных технологий в защиту семейных ценностей “За жизнь 2010”, прошедшем в Москве и завоевал призовое место в номинации “Образовательные программы”. Благодаря этому уроки, пред¬ставленные на конкурс получили распространение не только в Крыму, но и в Украине и России.

Данный сборник составлен из работ, принявших участие в конкурсе. Уроки разбиты по темам и служат образцами для повторения.
Организаторы конкурса уверены, что каждый учитель сможет улучшить этот опыт своими наработками.

Качество: CamRip
Формат: AVI
Видео кодек: DivX
Аудио кодек: MP3
Размер кадра: 720x590-564x480
Видео: ~735-1414 Кбит/сек, 29,970 кадров/сек
Аудио: 32|64|128 Кбит/сек (CBR), 2.0, 44,1|48,0 КГц
Краткое содержание:
1_Возрождение традиционных семейных ценностей
2_Как хотите, чтобы с вами поступали люди
3_Совесть
4_Сохрани жизнь
5_Почитай отца твоего и мать (младшие классы)
6_Почитай отца твоего и мать (старшие классы)
О сборнике:


Переработал оригинал:
1. Склеил разрозненные файлы одного автора
2. Перекодировал AVI (H.264) в AVI (DivX 4), обрезал при этом чёрные поля
3. Переминовал файлы структурировал и разложил

К некоторым работам приложены следующие материалы:
1. Текстовые документы .doc открывать (Microsoft Office 97-2003) и выше
2. Презентации .ppt открывать (Microsoft Office 97-2003) и выше и .pps откроется без офиса
3. Файлы формата .swf открываются браузером с установленным Adobe Flash Player или MPC-BE 1.1.0.1.2111
4. Песни в .mp3
5. Рисунок .jpg
6. 3 ролика формата .wmv
Формат: WMV
Качество видео: CamRip
Продолжительность: 00:06:51+00:02:16+00:03:40
Видеокодек: WMV3
Битрейт видео: ~252-768 Кбит/сек, 25,000 кадров/сек
Размер кадра: 640x480|320x240
Аудиокодек: WMA
Битрейт аудио: 32|96 Кбит/сек (CBR), 2.0, 32,0|44,1 КГц
MediaInfo:
Общее
Полное имя : D:\Православные фильмы и музыка\Фильмы\Конкурс на лучший урок нравственности (2010) CamRip\4_Сохрани жизнь\Сохрани жизнь\Тайна зарождения жизни.Черняева А. Ю\Раздумье.wmv
Формат : Windows Media
Размер файла : 6,47 Мбайт
Продолжительность : 3 м. 40 с.
Режим общего битрейта : Постоянный
Общий поток : 247 Кбит/сек
Максимальный общий битрейт : 874 Кбит/сек
Название фильма : Раздумье
Дата кодирования : UTC 2010-02-13 10:42:55.953
Application : Windows Movie Maker 2.1.4026.0

Видео
Идентификатор : 2
Формат : VC-1
Профиль формата : MP@ML
Идентификатор кодека : WMV3
Идентификатор кодека/Информация : Windows Media Video 9
Идентификатор кодека/Подсказка : WMV3
Описание кодека : Windows Media Video 9
Продолжительность : 3 м. 40 с.
Вид битрейта : Постоянный
Битрейт : 768 Кбит/сек
Ширина : 640 пикселей
Высота : 480 пикселей
Соотношение сторон : 4:3
Частота кадров : 25,000 кадров/сек
Битовая глубина : 8 бит
Тип развёртки : Прогрессивная
Метод сжатия : С потерями
Бит/(Пиксели*Кадры) : 0.100
Размер потока : 20,2 Мбайт
Язык : Russian

Аудио
Идентификатор : 1
Формат : WMA
Версия формата : Version 2
Идентификатор кодека : 161
Идентификатор кодека/Информация : Windows Media Audio
Описание кодека : Windows Media Audio 9 - 96 kbps, 44 kHz, stereo (A/V) 1-pass CBR
Продолжительность : 3 м. 40 с.
Вид битрейта : Постоянный
Битрейт : 96,0 Кбит/сек
Каналы : 2 канала
Частота : 44,1 КГц
Битовая глубина : 16 бит
Размер потока : 2,52 Мбайт (39%)
Язык : Russian
7. Файл фильм
Формат: AVI
Качество видео: CamRip
Продолжительность: 00:12:21
Видеокодек: DivX 5
Битрейт видео: ~1203 Кбит/сек, 25,000 кадров/сек
Размер кадра: 640x480
Аудиокодек: MP3
Битрейт аудио: 128 Кбит/сек (CBR), 2.0, 44,1 КГц
MediaInfo:
Общее
Полное имя : D:\Православные фильмы и музыка\Фильмы\Конкурс на лучший урок нравственности (2010) CamRip\2_Как хотите, чтобы с вами поступали люди\Как хотите, чтобы с вами поступали люди\Ставцева Э.Ю\Фильм.avi
Формат : AVI
Формат/Информация : Audio Video Interleave
Размер файла : 119 Мбайт
Продолжительность : 12 м.
Общий поток : 1344 Кбит/сек
Программа кодирования : Lavf51.12.1

Видео
Идентификатор : 0
Формат : MPEG-4 Visual
Профиль формата : Simple@L1
Параметр BVOP формата : Нет
Параметр QPel формата : Нет
Параметр GMC формата : Без точки перехода
Параметр матрицы формата : Default (H.263)
Идентификатор кодека : DX50
Идентификатор кодека/Подсказка : DivX 5
Продолжительность : 12 м.
Битрейт : 1203 Кбит/сек
Ширина : 640 пикселей
Высота : 480 пикселей
Соотношение сторон : 4:3
Частота кадров : 29,970 кадров/сек
Цветовое пространство : YUV
Субдискретизация насыщенности : 4:2:0
Битовая глубина : 8 бит
Тип развёртки : Прогрессивная
Метод сжатия : С потерями
Бит/(Пиксели*Кадры) : 0.131
Размер потока : 106 Мбайт (89%)
Библиотека кодирования : Lavc51.40.4

Аудио
Идентификатор : 1
Формат : MPEG Audio
Версия формата : Version 1
Профиль формата : Layer 3
Режим : Joint stereo
Расширение режима : MS Stereo
Идентификатор кодека : 55
Идентификатор кодека/Подсказка : MP3
Продолжительность : 12 м.
Вид битрейта : Постоянный
Битрейт : 128 Кбит/сек
Каналы : 2 канала
Частота : 44,1 КГц
Метод сжатия : С потерями
Размер потока : 11,3 Мбайт (10%)
Выравнивание : Соединение по промежуткам
Продолжительность промежутка : 26 мс. (0,78 видеокадр)
Полиграфия:
pic pic pic pic pic pic pic
MediaInfo:
Общее
Полное имя : D:\Православные фильмы и музыка\Фильмы\Конкурс на лучший урок нравственности (2010) CamRip\1_Возрождение традиционных семейных ценностей\Возрождение традиционных семейных ценностей\Пужлакова М.П.avi
Формат : AVI
Формат/Информация : Audio Video Interleave
Размер файла : 419 Мбайт
Продолжительность : 51 м.
Общий поток : 1147 Кбит/сек
Программа кодирования : Lavf54.63.100

Видео
Идентификатор : 0
Формат : MPEG-4 Visual
Профиль формата : Simple@L1
Параметр BVOP формата : Нет
Параметр QPel формата : Нет
Параметр GMC формата : Без точки перехода
Параметр матрицы формата : Default (H.263)
Идентификатор кодека : DIVX
Идентификатор кодека/Информация : Project Mayo
Идентификатор кодека/Подсказка : DivX 4
Продолжительность : 51 м.
Битрейт : 1005 Кбит/сек
Ширина : 600 пикселей
Высота : 480 пикселей
Соотношение сторон : 4:3
Частота кадров : 29,970 кадров/сек
Цветовое пространство : YUV
Субдискретизация насыщенности : 4:2:0
Битовая глубина : 8 бит
Тип развёртки : Прогрессивная
Метод сжатия : С потерями
Бит/(Пиксели*Кадры) : 0.116
Размер потока : 367 Мбайт (88%)
Библиотека кодирования : Lavc54.92.100

Аудио
Идентификатор : 1
Формат : MPEG Audio
Версия формата : Version 1
Профиль формата : Layer 3
Идентификатор кодека : 55
Идентификатор кодека/Подсказка : MP3
Продолжительность : 51 м.
Вид битрейта : Постоянный
Битрейт : 128 Кбит/сек
Каналы : 2 канала
Частота : 48,0 КГц
Метод сжатия : С потерями
Размер потока : 46,8 Мбайт (11%)
Выравнивание : Соединение по промежуткам
Продолжительность промежутка : 24 мс. (0,72 видеокадр)
Время предзагрузки промежутка : 24 мс.
Скриншоты:
pic pic pic pic pic

pic pic pic pic pic


Время раздачи: С 22:00 до 19:00 ( по московскому времени) до первых сидов
Download

Войдите на сайт, чтобы увидеть полную информацию.

Как скачивать  ·   Правила трекера

[Профиль]  [ЛС] 

SCK

Стаж: 6 лет 11 месяцев

Сообщений: 150

post 22-Июн-2013 16:22 (спустя 2 месяца 27 дней)

[Цитировать] 

Спаси Господи. Качаю
[Профиль]  [ЛС] 

stepan-frunze

Стаж: 8 лет 6 месяцев

Сообщений: 2564

Russia

post 22-Июн-2013 17:29 (спустя 1 час 7 минут)

[Цитировать] 

большое спасибо!
[Профиль]  [ЛС] 
Показать сообщения:    
Ответить на тему

Текущее время: 23-Сен 15:00

Часовой пояс: GMT + 4



Вы не можете начинать темы
Вы не можете отвечать на сообщения
Вы не можете редактировать свои сообщения
Вы не можете удалять свои сообщения
Вы не можете голосовать в опросах
Вы не можете прикреплять файлы к сообщениям
Вы не можете скачивать файлы