Loading...
Error

История происхождения религий. Церковь (Россия, ТВ "Спас") [2012 г., Лекция, Богословие, Философия, Религия, SATRip]

Ответить на тему
Статистика раздачи
Скачали: [ 3 ]
   
 
Автор Сообщение

Андрей64

post 06-Мар-2013 19:56

[Цитировать] 

История происхождения религий. Церковь (2012) SATRip

pic
Название: История происхождения религий. Церковь
Год выпуска: 2012
Выпущено: Россия, ТВ "Спас"
Жанр: Лекция, Богословие, Философия, Религия

Описание:
Лекцию ведет и дает ответы на наиболее важные темы современного мира по богословию, философии и религии - гранд доктор психологии, профессор, кандидат педагогических наук, член Союза писателей России, заместитель председателя Собора православной интеллигенции города Санкт-Петербурга, руководитель антинаркотического центра "Воскресение" Санкт-Петербургской епархии - священник Алексий Мороз.


Ведущий: Протоиерей Алексий Мороз

Продолжительность: 01:29:00

Видеокодек: Xvid
Битрейт видео: ~1000 Кбит/сек
Размер кадра: 720х544
Качество видео: SATRip
Аудиокодек: MP3, 2ch
Битрейт аудио: 160 Кбит/сек
Скриншоты:
pic pic pic
скрытый текст
Общее
Полное имя : История происхождения религий. Церковь.avi
Формат : AVI
Формат/Информация : Audio Video Interleave
Размер файла : 747 Мбайт
Продолжительность : 1 ч. 29 м.
Общий поток : 1172 Кбит/сек
Название фильма : История происхождения религий. Церковь
Программа кодирования : MEncoder SVN-r35044-4.6.1
Библиотека кодирования : MPlayer

Видео
Идентификатор : 0
Формат : MPEG-4 Visual
Профиль формата : Advanced Simple@L5
Параметр BVOP формата : 1
Параметр QPel формата : Нет
Параметр GMC формата : Без точки перехода
Параметр матрицы формата : Default (H.263)
Режим смешивания : Сжатый битовый поток
Идентификатор кодека : XVID
Идентификатор кодека/Подсказка : XviD
Продолжительность : 1 ч. 29 м.
Битрейт : 1000 Кбит/сек
Ширина : 720 пикселей
Высота : 544 пикселя
Соотношение сторон : 4:3
Соотношение сторон в оригинале : 4:3
Частота кадров : 25,000 кадров/сек
Цветовое пространство : YUV
Субдискретизация насыщенности : 4:2:0
Битовая глубина : 8 бит
Тип развёртки : Прогрессивная
Метод сжатия : С потерями
Бит/(Пиксели*Кадры) : 0.102
Размер потока : 637 Мбайт (85%)
Библиотека кодирования : XviD 64

Аудио
Идентификатор : 1
Формат : MPEG Audio
Версия формата : Version 1
Профиль формата : Layer 3
Режим : Joint stereo
Расширение режима : MS Stereo
Идентификатор кодека : 55
Идентификатор кодека/Подсказка : MP3
Продолжительность : 1 ч. 29 м.
Вид битрейта : Постоянный
Битрейт : 160 Кбит/сек
Каналы : 2 канала
Частота : 48,0 КГц
Метод сжатия : С потерями
Задержка видео : 40 мс.
Размер потока : 102 Мбайт (14%)
Выравнивание : Соединение по промежуткам
Продолжительность промежутка : 24 мс. (0,60 видеокадр)
Время предзагрузки промежутка : 504 мс.
Библиотека кодирования : LAME3.98.4
Download

Войдите для скачивания торрент-файла

Как скачивать  ·   Правила трекера

 

Damian

Стаж: 7 лет 2 месяца

Сообщений: 1839

Откуда: Донбасс

Russia

post 06-Мар-2013 20:06 (спустя 9 минут)

[Цитировать] 

На телеканале СПАС такого не было!

_________________
Помолимся!
[Профиль]  [ЛС] 

Андрей64

post 06-Мар-2013 20:15 (спустя 9 минут)

[Цитировать] 

Ну...тогда... откуда я скачал лекцию? Уж, не из МузТВ? Эта лекция у меня уже давно на жестком. А если нет визарда на скриншотах? ...Так я их убрал ранее.
 

sergii

Стаж: 8 лет 2 месяца

Сообщений: 35

post 06-Мар-2013 20:20 (спустя 4 минуты)

[Цитировать] 

это с кокого-то другого СПАС, а не с канала Smile


Link
[Профиль]  [ЛС] 

Андрей64

post 06-Мар-2013 20:23 (спустя 3 минуты)

[Цитировать] 

sergii писал(а):

это с кокого-то другого СПАС, а не с канала Smile


Link
-Значит кто то залил туда... Это не факт! Смотрите там, на Ютубе, тогда этот ресурс нужно отключить? Почти все релизы которые здесь, есть на Ютубе.


Последний раз редактировалось: Андрей64 (2013-03-06 20:26), всего редактировалось 1 раз
 

sergii

Стаж: 8 лет 2 месяца

Сообщений: 35

post 06-Мар-2013 20:25 (спустя 2 минуты)

[Цитировать] 

У вас же в хорошем качестве, может кому-то надо будет...
[Профиль]  [ЛС] 

Андрей64

post 06-Мар-2013 20:42 (спустя 16 минут)

[Цитировать] 

sergii
Уберите пожалуйста в спойлер линк, не хочеться в пустоту стоять на раздаче.(((
 

blad2195

Стаж: 5 лет 4 месяца

Сообщений: 449

Russia

post 06-Мар-2013 23:08 (спустя 2 часа 26 минут)

[Цитировать] 

Спасибо.

_________________
Фашингтон должен быть разрушен...хотя-бы с приходом Трампа немного пошатнулся.
[Профиль]  [ЛС] 

Андрей64

post 07-Мар-2013 00:30 (спустя 1 час 22 минуты)

[Цитировать] 

-Братья и Сёстры! Как Вам рекомендуют вышесказанные пользователи, не нужно тут качать! Смотрите всё на Ютубе! И будет Вам счастье! pic
 

Damian

Стаж: 7 лет 2 месяца

Сообщений: 1839

Откуда: Донбасс

Russia

post 07-Мар-2013 05:51 (спустя 5 часов)

[Цитировать] 

Андрей64
Ты,ютубщик,угомонись(((

_________________
Помолимся!
[Профиль]  [ЛС] 

blad2195

Стаж: 5 лет 4 месяца

Сообщений: 449

Russia

post 07-Мар-2013 16:47 (спустя 10 часов)

[Цитировать] 

Damian писал(а):

Андрей64
Ты,ютубщик,угомонись(((
Ютубщик не может просить убрать под спойлер ссылку на Ютуб. Smile

_________________
Фашингтон должен быть разрушен...хотя-бы с приходом Трампа немного пошатнулся.
[Профиль]  [ЛС] 

Ageres1996

Стаж: 11 месяцев

Сообщений: 3

Russia

post 08-Мар-2016 12:34 (спустя 3 года)

[Цитировать] 

Спасибо

_________________
Кто из вас без греха,пусть первый бросит в нее камень...
[Профиль]  [ЛС] 
Показать сообщения:    
Ответить на тему

Текущее время: 20-Фев 17:25

Часовой пояс: GMT + 4



Вы не можете начинать темы
Вы не можете отвечать на сообщения
Вы не можете редактировать свои сообщения
Вы не можете удалять свои сообщения
Вы не можете голосовать в опросах
Вы не можете прикреплять файлы к сообщениям
Вы не можете скачивать файлы