Loading...
Error

(Авторская песня) Анна Широченко "А день придёт..." - 2007, APE (image + .cue), lossless

Ответить на тему
Статистика раздачи
no
   
 
Автор Сообщение

Владислав

post 29-Окт-2009 22:36

[Цитировать] 

Анна Широченко "А день придёт..."

pic
Страна: Россия
Жанр: Авторская песня
Год выпуска: 2007
Формат: APE (image + .cue)
Битрейт аудио: lossless
Продолжительность: 51:52:15
Трэклист:
Артист: Анна Широченко
Альбом: 'А день придёт...'
==========================================
01 - Анна Широченко - Размышление
02 - Анна Широченко - Ксения Блаженная
03 - Анна Широченко - Журавлики
04 - Анна Широченко - Синай
05 - Анна Широченко - Ах,Расея,Расеюшка
06 - Анна Широченко - Я Россию спасал
07 - Анна Широченко - Батюшка Николае
08 - Анна Широченко - Наши дети
09 - Анна Широченко - Аллилуия
10 - Анна Широченко - Во Святое Воскресение
11 - Анна Широченко - Мимоза
12 - Анна Широченко - Пастырь добрый
13 - Анна Широченко - Заступница Усердная
14 - Анна Широченко - Знаешь,дочь
15 - Анна Широченко - Венчальная
16 - Анна Широченко - Колокольчик надежды
17 - Анна Широченко - Родниковая быль
18 - Анна Широченко - Светися,светися
19 - Анна Широченко - Этот свет в конце
EAC log
Exact Audio Copy V0.99 prebeta 5 from 4. May 2009
Exact Audio Copy V0.99 prebeta 5 from 4. May 2009

Отчёт EAC об извлечении, выполненном 29. октября 2009, 3:03

Анна Широченко / "А день придёт..."

Дисковод: Optiarc DVD RW AD-7191S Adapter: 4 ID: 0

Режим чтения : Достоверность
Использование точного потока : Да
Отключение кэша аудио : Да
Использование указателей C2 : Нет

Коррекция смещения при чтении : 6
Способность читать области Lead-in и Lead-out : Нет
Заполнение пропущенных сэмплов тишиной : Да
Удаление блоков с тишиной в начале и конце : Нет
При вычислениях CRC использовались нулевые сэмплы : Да
Интерфейс : Установленный внешний ASPI-интерфейс

Выходной формат : Внутренние WAV-операции
Формат сэмплов : 44.100 Гц; 16 бит; стерео

TOC извлечённого CD

Трек | Старт | Длительность | Начальный сектор | Конечный сектор
---------------------------------------------------------------------
1 | 0:00.00 | 1:41.66 | 0 | 7640
2 | 1:41.66 | 3:24.74 | 7641 | 23014
3 | 5:06.65 | 3:28.19 | 23015 | 38633
4 | 8:35.09 | 3:41.58 | 38634 | 55266
5 | 12:16.67 | 3:12.46 | 55267 | 69712
6 | 15:29.38 | 3:53.55 | 69713 | 87242
7 | 19:23.18 | 3:16.42 | 87243 | 101984
8 | 22:39.60 | 2:47.72 | 101985 | 114581
9 | 25:27.57 | 2:29.12 | 114582 | 125768
10 | 27:56.69 | 0:34.08 | 125769 | 128326
11 | 28:31.02 | 3:02.02 | 128327 | 141978
12 | 31:33.04 | 3:01.08 | 141979 | 155561
13 | 34:34.12 | 2:34.65 | 155562 | 167176
14 | 37:09.02 | 2:08.52 | 167177 | 176828
15 | 39:17.54 | 4:08.03 | 176829 | 195431
16 | 43:25.57 | 3:08.40 | 195432 | 209571
17 | 46:34.22 | 2:50.30 | 209572 | 222351
18 | 49:24.52 | 2:27.38 | 222352 | 233414
19 | 51:52.15 | 2:51.33 | 233415 | 246272

Характеристики диапазона извлечения и сообщения об ошибках

Выбранный диапазон

Имя файла D:\Музыка православная\Анна Широченко\Анна Широченко - А день придёт....wav

Пиковый уровень 100.0 %
Качество диапазона 100.0 %
CRC копии 9C149813
Копирование... OK

Ошибок не произошло

AccurateRip: сводка
Трек 1 нет в базе данных
Трек 2 нет в базе данных
Трек 3 нет в базе данных
Трек 4 нет в базе данных
Трек 5 нет в базе данных
Трек 6 нет в базе данных
Трек 7 нет в базе данных
Трек 8 нет в базе данных
Трек 9 нет в базе данных
Трек 10 нет в базе данных
Трек 11 нет в базе данных
Трек 12 нет в базе данных
Трек 13 нет в базе данных
Трек 14 нет в базе данных
Трек 15 нет в базе данных
Трек 16 нет в базе данных
Трек 17 нет в базе данных
Трек 18 нет в базе данных
Трек 19 нет в базе данных
Ни одного трека нет в базе AccurateRip

Конец отчёта
Download

Войдите для скачивания торрент-файла

Как скачивать  ·   Правила трекера

 

vlachernikov

Стаж: 6 лет 8 месяцев

Сообщений: 20

Latvia

post 23-Авг-2010 04:26 (спустя 9 месяцев)

[Цитировать] 

Хороший альбом!!!Спасибо!!!
[Профиль]  [ЛС] 

k-senya

Стаж: 4 года 10 месяцев

Сообщений: 9

post 27-Сен-2012 09:06 (спустя 2 года 1 месяц)

[Цитировать] 

Славные песни! Чудесное исполнение!
Спаси Господи!
[Профиль]  [ЛС] 
Показать сообщения:    
Ответить на тему

Текущее время: 10-Дек 16:39

Часовой пояс: GMT + 4



Вы не можете начинать темы
Вы не можете отвечать на сообщения
Вы не можете редактировать свои сообщения
Вы не можете удалять свои сообщения
Вы не можете голосовать в опросах
Вы не можете прикреплять файлы к сообщениям
Вы не можете скачивать файлы