Loading...
Error

(Авторская песня) "Храните православие" Стихи игумена Виссариона (Остапенко) - 2006, APE (image + .cue), lossless

Ответить на тему
Статистика раздачи
Скачали: [ 5 ]
   
 
Автор Сообщение

Владислав

post 29-Окт-2009 01:07

[Цитировать] 

"Храните православие" Стихи игумена Виссариона (Остапенко)

pic
Страна: Росси
Жанр: Авторская песня
Год выпуска: 2006
Формат: APE (image + .cue)
Битрейт аудио: lossless
Продолжительность: 64:14:20
Трэклист:
Артист: Стихи игумена Виссариона (Остапенко)
Альбом: Храните Православие
==========================================
01 - Стихи игумена Виссариона (Остапенко) - На рождество
02 - Стихи игумена Виссариона (Остапенко) - Лавра преподобного Сергия
03 - Стихи игумена Виссариона (Остапенко) - Троицкий собор
04 - Стихи игумена Виссариона (Остапенко) - Печальник Российской Державы
05 - Стихи игумена Виссариона (Остапенко) - Материнский совет
06 - Стихи игумена Виссариона (Остапенко) - Памятка
07 - Стихи игумена Виссариона (Остапенко) - О молитве
08 - Стихи игумена Виссариона (Остапенко) - На богослужении
09 - Стихи игумена Виссариона (Остапенко) - Россия
10 - Стихи игумена Виссариона (Остапенко) - Ко Пресвятой Богородице
11 - Стихи игумена Виссариона (Остапенко) - Молитвенное прошение
12 - Стихи игумена Виссариона (Остапенко) - Молитва Ангелу-хранителю
13 - Стихи игумена Виссариона (Остапенко) - Сохраняй Святую веру
14 - Стихи игумена Виссариона (Остапенко) - К трем святителям
15 - Стихи игумена Виссариона (Остапенко) - Об Иисусовой молитве
16 - Стихи игумена Виссариона (Остапенко) - Напоминание
17 - Стихи игумена Виссариона (Остапенко) - Телевизор
18 - Стихи игумена Виссариона (Остапенко) - Суеверием страдает планета
19 - Стихи игумена Виссариона (Остапенко) - Не гордись
20 - Стихи игумена Виссариона (Остапенко) - Прощенный день
21 - Стихи игумена Виссариона (Остапенко) - На евангельскую тему
22 - Стихи игумена Виссариона (Остапенко) - Святая гора Афон
23 - Стихи игумена Виссариона (Остапенко) - Все стихии служит Богу
24 - Стихи игумена Виссариона (Остапенко) - За все Творца благодари
25 - Стихи игумена Виссариона (Остапенко) - Наставление
26 - Стихи игумена Виссариона (Остапенко) - О преподобном Серафиме
27 - Стихи игумена Виссариона (Остапенко) - Скоротечность времени
28 - Стихи игумена Виссариона (Остапенко) - Скорбящему старику
29 - Стихи игумена Виссариона (Остапенко) - О промысле Божием
30 - Стихи игумена Виссариона (Остапенко) - Поздравление с постом
31 - Стихи игумена Виссариона (Остапенко) - Для простого народа пишу
32 - Стихи игумена Виссариона (Остапенко) - Троицкий собор
33 - Стихи игумена Виссариона (Остапенко) - Исповедь чернеца
EAC log
Exact Audio Copy V0.99 prebeta 5 from 4. May 2009

Отчёт EAC об извлечении, выполненном 28. октября 2009, 21:30

Стихи игумена Виссариона (Остапенко) / Храните Православие

Дисковод: Optiarc DVD RW AD-7191S Adapter: 4 ID: 0

Режим чтения : Достоверность
Использование точного потока : Да
Отключение кэша аудио : Да
Использование указателей C2 : Нет

Коррекция смещения при чтении : 6
Способность читать области Lead-in и Lead-out : Нет
Заполнение пропущенных сэмплов тишиной : Да
Удаление блоков с тишиной в начале и конце : Нет
При вычислениях CRC использовались нулевые сэмплы : Да
Интерфейс : Установленный внешний ASPI-интерфейс

Выходной формат : Внутренние WAV-операции
Формат сэмплов : 44.100 Гц; 16 бит; стерео

TOC извлечённого CD

Трек | Старт | Длительность | Начальный сектор | Конечный сектор
---------------------------------------------------------------------
1 | 0:00.00 | 0:53.65 | 0 | 4039
2 | 0:53.65 | 4:11.44 | 4040 | 22908
3 | 5:05.34 | 0:12.59 | 22909 | 23867
4 | 5:18.18 | 3:07.12 | 23868 | 37904
5 | 8:25.30 | 0:20.07 | 37905 | 39411
6 | 8:45.37 | 3:11.62 | 39412 | 53798
7 | 11:57.24 | 0:10.64 | 53799 | 54612
8 | 12:08.13 | 3:03.35 | 54613 | 68372
9 | 15:11.48 | 0:21.72 | 68373 | 70019
10 | 15:33.45 | 2:50.06 | 70020 | 82775
11 | 18:23.51 | 0:20.57 | 82776 | 84332
12 | 18:44.33 | 3:17.04 | 84333 | 99111
13 | 22:01.37 | 0:17.67 | 99112 | 100453
14 | 22:19.29 | 3:04.06 | 100454 | 114259
15 | 25:23.35 | 0:14.08 | 114260 | 115317
16 | 25:37.43 | 4:34.11 | 115318 | 135878
17 | 30:11.54 | 0:19.22 | 135879 | 137325
18 | 30:31.01 | 2:40.06 | 137326 | 149331
19 | 33:11.07 | 0:10.05 | 149332 | 150086
20 | 33:21.12 | 3:56.47 | 150087 | 167833
21 | 37:17.59 | 0:11.54 | 167834 | 168712
22 | 37:29.38 | 6:16.18 | 168713 | 196930
23 | 43:45.56 | 0:11.53 | 196931 | 197808
24 | 43:57.34 | 2:25.39 | 197809 | 208722
25 | 46:22.73 | 0:21.00 | 208723 | 210297
26 | 46:43.73 | 4:26.66 | 210298 | 230313
27 | 51:10.64 | 0:12.04 | 230314 | 231217
28 | 51:22.68 | 3:32.42 | 231218 | 247159
29 | 54:55.35 | 0:17.44 | 247160 | 248478
30 | 55:13.04 | 2:30.56 | 248479 | 259784
31 | 57:43.60 | 0:22.65 | 259785 | 261499
32 | 58:06.50 | 6:07.45 | 261500 | 289069
33 | 64:14.20 | 2:46.62 | 289070 | 301581

Характеристики диапазона извлечения и сообщения об ошибках

Выбранный диапазон

Имя файла M:\Kf\Храните православие\Стихи игумена Виссариона (Остапенко) - Храните Православие.wav

Пиковый уровень 100.0 %
Качество диапазона 100.0 %
CRC копии BCB748FB
Копирование... OK

Ошибок не произошло

AccurateRip: сводка
Трек 1 нет в базе данных
Трек 2 нет в базе данных
Трек 3 нет в базе данных
Трек 4 нет в базе данных
Трек 5 нет в базе данных
Трек 6 нет в базе данных
Трек 7 нет в базе данных
Трек 8 нет в базе данных
Трек 9 нет в базе данных
Трек 10 нет в базе данных
Трек 11 нет в базе данных
Трек 12 нет в базе данных
Трек 13 нет в базе данных
Трек 14 нет в базе данных
Трек 15 нет в базе данных
Трек 16 нет в базе данных
Трек 17 нет в базе данных
Трек 18 нет в базе данных
Трек 19 нет в базе данных
Трек 20 нет в базе данных
Трек 21 нет в базе данных
Трек 22 нет в базе данных
Трек 23 нет в базе данных
Трек 24 нет в базе данных
Трек 25 нет в базе данных
Трек 26 нет в базе данных
Трек 27 нет в базе данных
Трек 28 нет в базе данных
Трек 29 нет в базе данных
Трек 30 нет в базе данных
Трек 31 нет в базе данных
Трек 32 нет в базе данных
Трек 33 нет в базе данных
Ни одного трека нет в базе AccurateRip

Конец отчёта
Download

Войдите для скачивания торрент-файла

Как скачивать  ·   Правила трекера



Последний раз редактировалось: Владислав (2009-10-31 22:41), всего редактировалось 4 раз(а)
 

cr3cm8

Стаж: 7 лет 8 месяцев

Сообщений: 47

Откуда: Самый Запад России

Russia

post 31-Окт-2009 04:30 (спустя 2 дня 3 часа)

[Цитировать] 

Материал уникальный в своем роде (предполагаем), народ ждет раздачи, Владислав!
[Профиль]  [ЛС] 

Владислав

post 31-Окт-2009 08:47 (спустя 4 часа)

[Цитировать] 

Извините,что-то с раздачей не получается.Вроде всё правильно делаю.Удалю релиз и по новой попробую сделать.Не обижайтесь на меня те,кто уже скачал торрент.
 

сервп62

Стаж: 7 лет 9 месяцев

Сообщений: 303

post 31-Окт-2009 14:00 (спустя 5 часов)

[Цитировать] 

Уважаемый Владислав, куда Вы пропали
[Профиль]  [ЛС] 

Владислав

post 31-Окт-2009 18:17 (спустя 4 часа)

[Цитировать] 

Извините за задержку,учился уму разуму как оформлять правильно раздачи.
 

cr3cm8

Стаж: 7 лет 8 месяцев

Сообщений: 47

Откуда: Самый Запад России

Russia

post 01-Ноя-2009 03:40 (спустя 9 часов)

[Цитировать] 

Благодарим за хорошие песни, Владислав! ay
[Профиль]  [ЛС] 

Полеев Юрий Николаевич

post 11-Авг-2011 14:11 (спустя 1 год 9 месяцев)

[Цитировать] 

СТИХИ ИГУМЕНА ВИССАРИОНА (ОСТАПЕНКО)
СТИХИ

О вреде телевизора
Сохраняйте святую веру...
По ложной блуждаю дороге
По стопам идя Христа
Погостил, час домой возвращаться
Покайтесь
По стезе греха несусь
Постоянно тебя огорчаю
Исповедь
Памятка
Прощённый день
Наставление духовным чадам
Духовной дочери
Чтобы чад своих спасти
Духовным чадам
Ангелу-хранителю
 

rostik

Стаж: 7 лет 8 месяцев

Сообщений: 42

Откуда: Днепропетровск

Ukraine

post 15-Июн-2012 01:27 (спустя 10 месяцев)

[Цитировать] 

Спасибо! +++
[Профиль]  [ЛС] 

CEPBEP4

Стаж: 5 лет 9 месяцев

Сообщений: 132

Откуда: ОРЕНБУРГ

Russia

post 24-Июл-2012 22:21 (спустя 1 месяц 9 дней)

[Цитировать] 

Спасибо! +++

_________________
pic
pic 100 Мбит/с pic 100 Мбит/с pic
[Профиль]  [ЛС] 
Показать сообщения:    
Ответить на тему

Текущее время: 07-Дек 22:17

Часовой пояс: GMT + 4



Вы не можете начинать темы
Вы не можете отвечать на сообщения
Вы не можете редактировать свои сообщения
Вы не можете удалять свои сообщения
Вы не можете голосовать в опросах
Вы не можете прикреплять файлы к сообщениям
Вы не можете скачивать файлы