Loading...
Error

(Духовные стихи и канты) Духовные стихи. Музыкальные традиции старообрядцев Даугавпилса - 2003, FLAC (image + .cue), lossless

Ответить на тему
Статистика раздачи
Скачали: [ 2 ]
   
 
Автор Сообщение

etrusk

Стаж: 6 лет 2 месяца

Сообщений: 128

Russia

post 06-Июн-2012 19:55

[Цитировать] 

Духовные стихи. Музыкальные традиции старообрядцев Храма Рождества Пресвятой Богородицы в Даугавпилсе

pic
Страна: Латвия
Жанр: Духовные стихи и канты
Год выпуска: 2003
Формат: FLAC (image + .cue)
Битрейт аудио: lossless
Продолжительность: 0:53:12
Трэклист:
1. Духовный стих о блудном сыне (И.Н.Заволоко) - 6:07
2. Предание о Христе Спасителе (Е.М.Григорьева) - 1:49
3. Духовный стих Крещению (фрагмент) (Е.М.Григорьева) - 2:24
4. Стих о Закхее (Е.М.Григорьева) - 3:17
5. Покаянная молитва (В.В.Волков) - 3:49
6. Сокрушение о грехах (В.В.Волков) - 7:51
7. Два ангела (О.В.Арышева) - 4:55
8. Стих о расставании души с телом (А.М.Самбур) - 2:37
9. Ой, вы, голуби (А.М.Самбур) - 5:27
10. Агарь (фрагмент) (Молодежный хор 'Воскресение') - 2:37
11. Стих о умолении матерью своего чада (Молодежный хор 'Воскресение') - 4:00
12. Стих Рождеству Христову (Молодежный хор 'Воскресение') - 1:44
13. Самарянка (фрагмент) (Молодежный хор 'Воскресение') - 3:16
14. Аввакум и семья в изгнании (Молодежный хор 'Воскресение') - 3:20
Дополнительная информация:
EAC log
Exact Audio Copy V0.99 prebeta 5 from 4. May 2009

Отчёт EAC об извлечении, выполненном 18. декабря 2011, 22:15

- / Духовные стихи. Даугавпилс

Дисковод: Optiarc DVD RW AD-7200S Adapter: 5 ID: 0

Режим чтения : Достоверность
Использование точного потока : Да
Отключение кэша аудио : Да
Использование указателей C2 : Нет

Коррекция смещения при чтении : 48
Способность читать области Lead-in и Lead-out : Нет
Заполнение пропущенных сэмплов тишиной : Да
Удаление блоков с тишиной в начале и конце : Нет
При вычислениях CRC использовались нулевые сэмплы : Да
Интерфейс : Встроенный Win32-интерфейс для Win NT/2000

Выходной формат : Внутренние WAV-операции
Формат сэмплов : 44.100 Гц; 16 бит; стерео

TOC извлечённого CD

Трек | Старт | Длительность | Начальный сектор | Конечный сектор
---------------------------------------------------------------------
1 | 0:00.00 | 6:07.25 | 0 | 27549
2 | 6:07.25 | 1:48.71 | 27550 | 35720
3 | 7:56.21 | 2:24.09 | 35721 | 46529
4 | 10:20.30 | 3:16.41 | 46530 | 61270
5 | 13:36.71 | 3:48.40 | 61271 | 78410
6 | 17:25.36 | 7:50.47 | 78411 | 113707
7 | 25:16.08 | 4:54.53 | 113708 | 135810
8 | 30:10.61 | 2:36.61 | 135811 | 147571
9 | 32:47.47 | 5:27.14 | 147572 | 172110
10 | 38:14.61 | 2:36.67 | 172111 | 183877
11 | 40:51.53 | 4:00.21 | 183878 | 201898
12 | 44:51.74 | 1:43.55 | 201899 | 209678
13 | 46:35.54 | 3:15.41 | 209679 | 224344
14 | 49:51.20 | 3:20.21 | 224345 | 239365

Характеристики диапазона извлечения и сообщения об ошибках

Выбранный диапазон

Имя файла M:\Audio\Spirituals_Religious\Россия\Духовные стихи канты\Духовные стихи. Даугавпилс\Духовные стихи. Даугавпилс.wav

Пиковый уровень 100.0 %
Качество диапазона 99.9 %
CRC теста C015DCCC
CRC копии C015DCCC
Копирование... OK

Ошибок не произошло

AccurateRip: сводка
Трек 1 нет в базе данных
Трек 2 нет в базе данных
Трек 3 нет в базе данных
Трек 4 нет в базе данных
Трек 5 нет в базе данных
Трек 6 нет в базе данных
Трек 7 нет в базе данных
Трек 8 нет в базе данных
Трек 9 нет в базе данных
Трек 10 нет в базе данных
Трек 11 нет в базе данных
Трек 12 нет в базе данных
Трек 13 нет в базе данных
Трек 14 нет в базе данных
Ни одного трека нет в базе AccurateRip

Конец отчёта
Информация с буклета.
"Пластинка появилась в результате удачного совпадения. Весной 2001 года автором этих строк при содействии Фонда Капитала Культуры был начат проект, целью которого было документировать традиционную музыку старообрядцев. Главной задачей стала запись старообрядческой литургической и обрядовой музыки, а также духовных стихов — чтобы сохранить эти культурные ценности для науки и общества. (Материалы для хранения переданы в Архив латышского фольклора при Институте литературы, фольклора и языка Латвийского университета.) Автором идеи издать пластинку является духовный наставник 1-й Даугавпилсской старообрядческой общины отец Алексий Николаевич Жилко. Возникла мысль, что ее можно бы создать на основе материала, собранного при осуществлении проекта (2001-2003 гг.). Записи проводились в Храме Рождества Пресвятой Богородицы - на хорах и в Зале заседаний Совета. Содержание пластинки определилось в диалоге автора этих строк с отцом Жилко, который привлекал к обсуждению и участников записей. Таким образом, нашли свое отражение и интересы и взгляды исследователя, и представления и пожелания духовного наставника с участниками записей. Пластинка представляет несколько поколений исполнителей, тем самым в некоторой степени знакомя слушателя и с историей жанра в XX веке. Первой, в качестве символического вступления, приводится историческая запись, в которой слышен голос Ивана Никифоровича Заволоко, вдохновившего в 30-е годы на обновление традиции исполнения духовных стихов. Следуют три записи певицы старшего поколения Евгении Маркияновны Григорьевой. Она является связующим звеном между традициями пения старообрядческой молодежи в 30-е годы и нынешнего поколения молодых певцов Храма Рождества Пресвятой Богородицы. Затем следует ряд записей молодых певцов, показывающий многообразие голосов и исполнительских приемов. Завершают пластинку пять духовных стихов в исполнении молодежного хора храма „Воскресение". Эти записи демонстрируют ту форму, в которой данный жанр в среде даугавпилсского старообрядчества в наше время звучит наиболее часто" (Мартин Бойко, доктор философии, доцент Института литературы, фольклора и языка Латвийского Университета).

Данная выкладка обязана своим появлением Д.Григорьеву, любезно предоставившему компакт-диск, с которого и был осуществлен рип.
Рекомендуется всем интересующимся.
MP3 - http://pravtor.ru/viewtopic.php?p=78897
Download

Войдите для скачивания торрент-файла

Как скачивать  ·   Правила трекера



Последний раз редактировалось: etrusk (2012-06-07 16:31), всего редактировалось 1 раз
[Профиль]  [ЛС] 

lija744

Стаж: 6 лет 7 месяцев

Сообщений: 1

Uk

post 07-Июн-2012 08:36 (спустя 12 часов)

[Цитировать] 

Пожалуйста, дайте в МП3.Спасибо.
[Профиль]  [ЛС] 

radamir

Стаж: 4 года 3 месяца

Сообщений: 19

post 18-Фев-2013 17:18 (спустя 8 месяцев)

[Цитировать] 

Просто потрясающе. Красивейшие стихи.
[Профиль]  [ЛС] 
Показать сообщения:    
Ответить на тему

Текущее время: 03-Дек 15:39

Часовой пояс: GMT + 4



Вы не можете начинать темы
Вы не можете отвечать на сообщения
Вы не можете редактировать свои сообщения
Вы не можете удалять свои сообщения
Вы не можете голосовать в опросах
Вы не можете прикреплять файлы к сообщениям
Вы не можете скачивать файлы