Loading...
Error

(православная песня) Александр Старостенко - К Небу - 2012, FLAC (image + .cue), lossless

Страницы:  1, 2, 3  След.

Ответить на тему
Статистика раздачи
Качают: [ 1 ]
Скачали: [ 31 ]
   
 
Автор Сообщение

mpstudio

Стаж: 6 лет 8 месяцев

Сообщений: 16

Russia

post 18-Фев-2012 20:49

[Цитировать] 

Александр Старостенко - К Небу...

pic
Страна: Украина
Жанр: православная песня
Год выпуска: 2012
Формат: FLAC (image+cue)
Битрейт аудио: lossless
Продолжительность: 47 мин
Трэклист:

1. Молитва 01.46
2. Дай терпенья 02.55
3. В райском небе 04.36
4. Я жду тебя 03.58
5. Осень 04.02
6. Богородица 04.08
7. Сердце 03.52
8. Покаяние 03.39
9. К небу 03.37
10. Прости меня 03.36
11. Душа моя 04.26
12. Любовь (инструментальная композиция) 03.32
13. Не печалься 02.59
Лог создания рипа
Exact Audio Copy V1.0 beta 3 from 29. August 2011

Отчёт EAC об извлечении, выполненном 20. февраля 2012, 21:44

Александр Старостенко / К небу

Дисковод: _NEC DVD_RW ND-4571A Adapter: 0 ID: 1

Режим чтения : Достоверность
Использование точного потока : Да
Отключение кэша аудио : Нет
Использование указателей C2 : Нет

Коррекция смещения при чтении : 48
Способность читать области Lead-in и Lead-out : Нет
Заполнение пропущенных сэмплов тишиной : Да
Удаление блоков с тишиной в начале и конце : Нет
При вычислениях CRC использовались нулевые сэмплы : Да
Интерфейс : Установленный внешний ASPI-интерфейс

Выходной формат : Пользовательский кодировщик
Выбранный битрейт : 768 kBit/s
Качество : Высокий
Добавление ID3-тега : Нет
Утилита сжатия : C:\Program Files (x86)\Exact Audio Copy\FLAC\FLAC.EXE
Дополнительные параметры : -V -8 -T "Date=%year%" -T "Genre=%genre%" %source%

TOC извлечённого CD

Трек | Старт | Длительность | Начальный сектор | Конечный сектор
---------------------------------------------------------------------
1 | 0:00.00 | 1:48.70 | 0 | 8169
2 | 1:48.70 | 2:57.30 | 8170 | 21474
3 | 4:46.25 | 4:38.60 | 21475 | 42384
4 | 9:25.10 | 4:00.24 | 42385 | 60408
5 | 13:25.34 | 4:04.10 | 60409 | 78718
6 | 17:29.44 | 4:10.65 | 78719 | 97533
7 | 21:40.34 | 3:54.73 | 97534 | 115156
8 | 25:35.32 | 3:41.64 | 115157 | 131795
9 | 29:17.21 | 3:39.67 | 131796 | 148287
10 | 32:57.13 | 3:38.34 | 148288 | 164671
11 | 36:35.47 | 4:28.28 | 164672 | 184799
12 | 41:04.00 | 3:34.08 | 184800 | 200857
13 | 44:38.08 | 2:59.62 | 200858 | 214344

Характеристики диапазона извлечения и сообщения об ошибках

Выбранный диапазон

Имя файла C:\Windows\Temp\AAA\Александр Старостенко - К небу.wav

Пиковый уровень 100.0 %
Скорость извлечения 7.7 X
Качество диапазона 100.0 %
CRC копии E8E12931
Копирование... OK

Ошибок не произошло

Конец отчёта

---- CUETools DB Plugin V2.1.3

[CTDB TOCID: Fb8MXgmQePcP34gARHRam_9yD6E-] found, Submit result: already submitted
[0aa562ad] (2/2) Accurately ripped
Обложки
pic
pic
pic
pic
Download

Войдите для скачивания торрент-файла

Как скачивать  ·   Правила трекера



Последний раз редактировалось: mpstudio (2012-04-02 20:15), всего редактировалось 17 раз(а)
[Профиль]  [ЛС] 

mpstudio

Стаж: 6 лет 8 месяцев

Сообщений: 16

Russia

post 18-Фев-2012 20:53 (спустя 3 минуты)

[Цитировать] 

Простите, я наверняка нарушаю правила, не зная названия треков. Диск мне подарили на самописной болванке, а в Интернете я ничего не смог найти... Может, кто-нибудь поможет с названиями?
[Профиль]  [ЛС] 

Платонов

Стаж: 6 лет 3 месяца

Сообщений: 47

Russia

post 18-Фев-2012 22:48 (спустя 1 час 55 минут)

[Цитировать] 

Надо установить Medieval CUE Splitter и раскрыть файл CUE, Там все расписано! С Богом!

_________________
ЕГОР
[Профиль]  [ЛС] 

mpstudio

Стаж: 6 лет 8 месяцев

Сообщений: 16

Russia

post 18-Фев-2012 22:57 (спустя 8 минут)

[Цитировать] 

Платонов
У меня аудиодиск. Прожженный. Откуда там взяться Cue файлу? Базы данных, что наши, что западные, об этом диске молчат.
[Профиль]  [ЛС] 

raychen

Стаж: 8 лет

Сообщений: 36

post 19-Фев-2012 03:33 (спустя 4 часа)

[Цитировать] 

Спасибо! Даже на его сайте нет информации.
[Профиль]  [ЛС] 

Damian

Стаж: 7 лет

Сообщений: 1838

Откуда: Донбасс

Russia

post 19-Фев-2012 15:36 (спустя 12 часов)

[Цитировать] 

Красота неимоверная!
Помогай Вам Господь о.Александр!

_________________
Помолимся!
[Профиль]  [ЛС] 

SKIMEN77

Стаж: 5 лет

Сообщений: 71

Откуда: ВОРОНЕЖ

Russia

post 19-Фев-2012 17:20 (спустя 1 час 43 минуты)

[Цитировать] 

благодарность раздающему и особая о. Александру
[Профиль]  [ЛС] 

yulylysenko

Стаж: 6 лет 2 месяца

Сообщений: 22

Откуда: Лисичанск, Луганская обл.

Ukraine

post 20-Фев-2012 00:49 (спустя 7 часов)

[Цитировать] 

mpstudio писал(а):

Александр Старостенко - К Небу...

pic
Страна: Украина
Жанр: православная песня
Год выпуска: 2012
Формат: FLAC (tracks)
Битрейт аудио: lossless
Продолжительность: 47 мин
Трэклист:
1. Молитва 01.46
2. Дай терпенья 02.55
3. В райском небе 04.36
4. Я жду тебя 03.58
5. Осень 04.02
6. Богородица 04.08
7. Сердце 03.52
8. Покаяние 03.39
9. К небу 03.37
10. прости меня 03.36
11.Душа моя 04.26
12. Любовь (инструментальная композиция 03.32
13. Не печалься 02.59
Лог создания рипа
[pre]
Exact Audio Copy V1.0 beta 3 from 29. August 2011

Отчёт EAC об извлечении, выполненном 18. февраля 2012, 19:54

- / К Небу

Дисковод: _NEC DVD_RW ND-4571A Adapter: 0 ID: 1

Режим чтения : Достоверность
Использование точного потока : Да
Отключение кэша аудио : Нет
Использование указателей C2 : Нет

Коррекция смещения при чтении : 48
Способность читать области Lead-in и Lead-out : Нет
Заполнение пропущенных сэмплов тишиной : Да
Удаление блоков с тишиной в начале и конце : Нет
При вычислениях CRC использовались нулевые сэмплы : Да
Интерфейс : Встроенный Win32-интерфейс для Win NT/2000
Обработка зазоров : Не обнаружено, добавлено к предыдущему треку

Выходной формат : Пользовательский кодировщик
Выбранный битрейт : 768 kBit/s
Качество : Высокий
Добавление ID3-тега : Нет
Утилита сжатия : C:\Program Files (x86)\Exact Audio Copy\FLAC\FLAC.EXE
Дополнительные параметры : -6 -V -T "ARTIST=%artist%" -T "TITLE=%title%" -T "ALBUM=%albumtitle%" -T "DATE=%year%" -T "TRACKNUMBER=%tracknr%" -T "GENRE=%genre%" -T "COMMENT=%comment%" -T "BAND=%albuminterpret%" -T "ALBUMARTIST=%albuminterpret%" -T "COMPOSER=%composer%" %haslyrics%--tag-from-file=LYRICS="%lyricsfile%"%haslyrics% -T "DISCNUMBER=%cdnumber%" -T "TOTALDISCS=%totalcds%" -T "TOTALTRACKS=%numtracks%" %hascover%--picture="%coverfile%"%hascover% %source% -o %dest%

TOC извлечённого CD

Трек | Старт | Длительность | Начальный сектор | Конечный сектор
---------------------------------------------------------------------
1 | 0:00.00 | 1:48.70 | 0 | 8169
2 | 1:48.70 | 2:57.30 | 8170 | 21474
3 | 4:46.25 | 4:38.60 | 21475 | 42384
4 | 9:25.10 | 4:00.24 | 42385 | 60408
5 | 13:25.34 | 4:04.10 | 60409 | 78718
6 | 17:29.44 | 4:10.65 | 78719 | 97533
7 | 21:40.34 | 3:54.73 | 97534 | 115156
8 | 25:35.32 | 3:41.64 | 115157 | 131795
9 | 29:17.21 | 3:39.67 | 131796 | 148287
10 | 32:57.13 | 3:38.34 | 148288 | 164671
11 | 36:35.47 | 4:28.28 | 164672 | 184799
12 | 41:04.00 | 3:34.08 | 184800 | 200857
13 | 44:38.08 | 2:59.62 | 200858 | 214344

Трек 1

Имя файла C:\Windows\Temp\AAA\01 Трек01.wav

Пиковый уровень 97.7 %
Скорость извлечения 4.1 X
Качество трека 100.0 %
CRC копии C8CFA7D9
Копирование... OK

Трек 2

Имя файла C:\Windows\Temp\AAA\02 Трек02.wav

Пиковый уровень 99.3 %
Скорость извлечения 7.9 X
Качество трека 100.0 %
CRC копии 0CCCE246
Копирование... OK

Трек 3

Имя файла C:\Windows\Temp\AAA\03 Трек03.wav

Пиковый уровень 98.9 %
Скорость извлечения 4.8 X
Качество трека 100.0 %
CRC копии 3E5516FE
Копирование... OK

Трек 4

Имя файла C:\Windows\Temp\AAA\04 Трек04.wav

Пиковый уровень 98.7 %
Скорость извлечения 8.9 X
Качество трека 99.9 %
CRC копии E986ED84
Копирование... OK

Трек 5

Имя файла C:\Windows\Temp\AAA\05 Трек05.wav

Пиковый уровень 100.0 %
Скорость извлечения 9.0 X
Качество трека 100.0 %
CRC копии 7AA8E790
Копирование... OK

Трек 6

Имя файла C:\Windows\Temp\AAA\06 Трек06.wav

Пиковый уровень 99.7 %
Скорость извлечения 5.8 X
Качество трека 100.0 %
CRC копии 2449B6CB
Копирование... OK

Трек 7

Имя файла C:\Windows\Temp\AAA\07 Трек07.wav

Пиковый уровень 98.7 %
Скорость извлечения 10.9 X
Качество трека 100.0 %
CRC копии 6FED5D6F
Копирование... OK

Трек 8

Имя файла C:\Windows\Temp\AAA\08 Трек08.wav

Пиковый уровень 98.5 %
Скорость извлечения 6.4 X
Качество трека 100.0 %
CRC копии 3C14C7BD
Копирование... OK

Трек 9

Имя файла C:\Windows\Temp\AAA\09 Трек09.wav

Пиковый уровень 98.8 %
Скорость извлечения 12.3 X
Качество трека 100.0 %
CRC копии 0FC42D05
Копирование... OK

Трек 10

Имя файла C:\Windows\Temp\AAA\10 Трек10.wav

Пиковый уровень 98.6 %
Скорость извлечения 11.5 X
Качество трека 99.9 %
CRC копии 356B9447
Копирование... OK

Трек 11

Имя файла C:\Windows\Temp\AAA\11 Трек11.wav

Пиковый уровень 100.0 %
Скорость извлечения 6.6 X
Качество трека 99.9 %
CRC копии 08532775
Копирование... OK

Трек 12

Имя файла C:\Windows\Temp\AAA\12 Трек12.wav

Пиковый уровень 98.3 %
Скорость извлечения 12.2 X
Качество трека 99.9 %
CRC копии 5AC24190
Копирование... OK

Трек 13

Имя файла C:\Windows\Temp\AAA\13 Трек13.wav

Пиковый уровень 99.9 %
Скорость извлечения 7.5 X
Качество трека 100.0 %
CRC копии CF5743F4
Копирование... OK

Ошибок не произошло

Конец отчёта

---- CUETools DB Plugin V2.1.3

[CTDB TOCID: Fb8MXgmQePcP34gARHRam_9yD6E-] found, Submit result: Fb8MXgmQePcP34gARHRam_9yD6E- has been confirmed
[0aa562ad] (1/1) Accurately ripped

[/pre]
pic
pic
pic
pic

_________________
...мудрость, сходящая свыше, во-первых, чиста, потом мирна, скромна, послушлива, полна милосердия и добрых плодов, беспристрастна и нелицемерна.
[Профиль]  [ЛС] 

mpstudio

Стаж: 6 лет 8 месяцев

Сообщений: 16

Russia

post 20-Фев-2012 03:31 (спустя 2 часа 42 минуты)

[Цитировать] 

yulylysenko
Спаси Вас Бог!
[Профиль]  [ЛС] 

yulylysenko

Стаж: 6 лет 2 месяца

Сообщений: 22

Откуда: Лисичанск, Луганская обл.

Ukraine

post 20-Фев-2012 21:58 (спустя 18 часов)

[Цитировать] 

mpstudio писал(а):

yulylysenko
Спаси Вас Бог!
Во славу Божию!

_________________
...мудрость, сходящая свыше, во-первых, чиста, потом мирна, скромна, послушлива, полна милосердия и добрых плодов, беспристрастна и нелицемерна.
[Профиль]  [ЛС] 

mpstudio

Стаж: 6 лет 8 месяцев

Сообщений: 16

Russia

post 20-Фев-2012 22:34 (спустя 35 минут)

[Цитировать] 

Перезалито image+cue всвязи с появлением названий. Также включена полиграфия. Извините за неудобства.
[Профиль]  [ЛС] 

Ard

Стаж: 6 лет 6 месяцев

Сообщений: 125

Russia

post 20-Фев-2012 22:59 (спустя 24 минуты)

[Цитировать] 

Спасибо большое. Теперь есть что послушать кроме Скобли и Кинчева. Буду признателен, если подскажете ещё современных православных песен. Юлия Славянская ещё очень хорошие песни поёт.

_________________
Василий Великий: «Кто смотрит на зло без отвращения, тот скоро будет смотреть на него с удовольствием".
[Профиль]  [ЛС] 

alfredgps

post 21-Фев-2012 10:04 (спустя 11 часов)

[Цитировать] 

Музыка здесь вся с элементами ТРАНСА (современного медитативного направления в музыке). Так и до папства уже недалеко! и до экуменизма. Иногда в мелодиях просто слышатся звуки с минарета... А поэзия самого исполнителя (формально - христианский, покаянный текст) - уже не выручит, при таком раскладе дел. Под такую музыку и буддист придет помедитировать, постоять в общем "храме". Пожалуйста, будьте осторожны! - Как такое могло случиться с о.Александром?! - считаю, он НЕ СЛЫШАЛ окончательной версии: произошло позднейшее наложение нехристианских мелодик. И ЗА ЭТО "СПСИБО" арранжировщику Ростиславу КЛАПАНУ передайте!!

К сожалению, отзыв может быть только такой. Сам - в шоке...

Кстати, замечание и о неудачном названии альбома. "К Небу"... экуменизм чистой воды. У православных - Бог! Личность! между прочим... И.Х. В буддизме есть только ПУСТОТА, НИЧТО - и Это обожествляется.Там нет личности, равной Иисусу.

"К Христу" - слабО назвать?!... Или - "К Пречистей" можно было бы... Ангелу-Хранителю многие доверяют и обращаются к Нему...
Я вот просто не понял (такие тексты!!) КОГО (или - ЧТО?..) подразумевал автор под словом "Небо"? - К КОМУ ОН ОБРАЩАЕТСЯ? - КОМУ адресовано это послание? неможно даже это понять... Shocked ну разве что это - неточный перевод слов "Вонми небо..." ?!
--------------------
Микола Гнатюк - вот Вам достойный образец! По искренности и задушевности выражения - никто лучше его не спел еще православную песню в Украине. Учитесь, отцы Церкви, у своих прихожан - веру хранить.


Последний раз редактировалось: alfredgps (2012-03-17 20:13), всего редактировалось 1 раз
 

Ard

Стаж: 6 лет 6 месяцев

Сообщений: 125

Russia

post 21-Фев-2012 17:20 (спустя 7 часов)

[Цитировать] 

alfredgps
- честно говоря, тоже музыка смутила. Медитативная. Но Кинчев тоже рок поёт. Мне не нравятся гитары у Кинчева (особенно в ранних) - режут слух, глушат всё. Текст, ритм отличный. Спасибо за предупреждение. Пойду спрошу на форуме у Кураева, что за альбом такой выложили.

_________________
Василий Великий: «Кто смотрит на зло без отвращения, тот скоро будет смотреть на него с удовольствием".
[Профиль]  [ЛС] 

alfredgps

post 21-Фев-2012 20:08 (спустя 2 часа 48 минут)

[Цитировать] 

Душа болит о наших священнослужителях! Не думаю, что здесь дурной замысел был, нет! - но материальное вторгается всё сильнее в церковный мир... Представляю так, что - бедный это район - г. Сумы (самый север Украины) - а как-то надо восстанавливать храмы, обустраивать приходы... очень тяжело батюшкам православным, где брать средства?.. и РЫНОК диктует "модное" сочетание - христианство в обрамлении "музыки для медитаций". Скорее всего, диавол "подъехал" через пронырливого звукорежиссера-продюсера диска... Он-то знает, что вызовет настоящий фурор в музыкальном мире! он ВСЕГДА ориентируется только на "МОДУ" - а это будет уже нехристианская даже музыка... Поможi, Боже, отцу Александру!
 
Показать сообщения:    
Ответить на тему

Текущее время: 03-Дек 15:34

Часовой пояс: GMT + 4



Вы не можете начинать темы
Вы не можете отвечать на сообщения
Вы не можете редактировать свои сообщения
Вы не можете удалять свои сообщения
Вы не можете голосовать в опросах
Вы не можете прикреплять файлы к сообщениям
Вы не можете скачивать файлы