Loading...
Error

(Песни авторов и исполнителей (lossless).) Олег Погудин. "Песнопения иеромонаха Романа". (2CD). - 2007, APE (image + .cue), lossless

Ответить на тему
Статистика раздачи
   
 
Автор Сообщение

СЕРГУЛЕТ

Стаж: 9 лет 7 месяцев

Сообщений: 2637

Откуда: LA ROMANA

Dominicanrep

post 16-Дек-2011 17:44

[Цитировать] 

Олег Погудин. "Песнопения иеромонаха Романа". (2CD).

pic
Страна: Россия. "Бомба-Питер".
Жанр: Песни авторов и исполнителей (lossless).
Год выпуска: 2007
Формат: APE (image + .cue)
Битрейт аудио: lossless
Продолжительность: 00:47:52+00:40:12
Содержание+Обложки
picpicpic
EAC log
CD1.
Exact Audio Copy V1.0 beta 2 from 29. April 2011

Отчёт EAC об извлечении, выполненном 16. декабря 2011, 13:24

Олег Погудин / Песнопения Иеромонаха Романа CD1

Дисковод: ASUS DRW-2014L1T Adapter: 2 ID: 1

Режим чтения : Достоверность
Использование точного потока : Да
Отключение кэша аудио : Да
Использование указателей C2 : Нет

Коррекция смещения при чтении : 6
Способность читать области Lead-in и Lead-out : Нет
Заполнение пропущенных сэмплов тишиной : Да
Удаление блоков с тишиной в начале и конце : Нет
При вычислениях CRC использовались нулевые сэмплы : Да
Интерфейс : Встроенный Win32-интерфейс для Win NT/2000

Выходной формат : Внутренние WAV-операции
Формат сэмплов : 44.100 Гц; 16 бит; стерео

TOC извлечённого CD

Трек | Старт | Длительность | Начальный сектор | Конечный сектор
---------------------------------------------------------------------
1 | 0:00.00 | 10:01.71 | 0 | 45145
2 | 10:01.71 | 4:15.57 | 45146 | 64327
3 | 14:17.53 | 4:00.47 | 64328 | 82374
4 | 18:18.25 | 6:14.46 | 82375 | 110470
5 | 24:32.71 | 6:06.07 | 110471 | 137927
6 | 30:39.03 | 10:47.20 | 137928 | 186472
7 | 41:26.23 | 6:26.35 | 186473 | 215457

Характеристики диапазона извлечения и сообщения об ошибках

Выбранный диапазон

Имя файла C:\Олег Погудин - Песнопения Иеромонаха Романа CD1.wav

Копирование прервано

Конец отчёта

==== Контрольная сумма отчёта 73EB3783203B8006F6193C271253FE89ED9D3BCFA0031ABD9552E68B97F59AED ====

------------------------------------------------------------

Exact Audio Copy V1.0 beta 2 from 29. April 2011

Отчёт EAC об извлечении, выполненном 16. декабря 2011, 13:37

Олег Погудин / Песнопения Иеромонаха Романа CD1

Дисковод: ASUS DRW-2014L1T Adapter: 2 ID: 1

Режим чтения : Достоверность
Использование точного потока : Да
Отключение кэша аудио : Да
Использование указателей C2 : Нет

Коррекция смещения при чтении : 6
Способность читать области Lead-in и Lead-out : Нет
Заполнение пропущенных сэмплов тишиной : Да
Удаление блоков с тишиной в начале и конце : Нет
При вычислениях CRC использовались нулевые сэмплы : Да
Интерфейс : Встроенный Win32-интерфейс для Win NT/2000

Выходной формат : Внутренние WAV-операции
Формат сэмплов : 44.100 Гц; 16 бит; стерео

TOC извлечённого CD

Трек | Старт | Длительность | Начальный сектор | Конечный сектор
---------------------------------------------------------------------
1 | 0:00.00 | 10:01.71 | 0 | 45145
2 | 10:01.71 | 4:15.57 | 45146 | 64327
3 | 14:17.53 | 4:00.47 | 64328 | 82374
4 | 18:18.25 | 6:14.46 | 82375 | 110470
5 | 24:32.71 | 6:06.07 | 110471 | 137927
6 | 30:39.03 | 10:47.20 | 137928 | 186472
7 | 41:26.23 | 6:26.35 | 186473 | 215457

Характеристики диапазона извлечения и сообщения об ошибках

Выбранный диапазон

Имя файла C:\Олег Погудин - Песнопения Иеромонаха Романа CD1.wav

Пиковый уровень 98.9 %
Скорость извлечения 4.4 X
Качество диапазона 99.9 %
CRC копии 00259446
Копирование... OK

Ошибок не произошло

Конец отчёта

==== Контрольная сумма отчёта 43D1BDAEB6F4FAEDB2D72A2A1BC8910029E5AF40F8E37B2B20A51CB6DA416697 ====

CD2.
Exact Audio Copy V1.0 beta 2 from 29. April 2011

Отчёт EAC об извлечении, выполненном 16. декабря 2011, 13:52

Олег Погудин / Песнопения иеромонаха Романа CD2

Дисковод: ASUS DRW-2014L1T Adapter: 2 ID: 1

Режим чтения : Достоверность
Использование точного потока : Да
Отключение кэша аудио : Да
Использование указателей C2 : Нет

Коррекция смещения при чтении : 6
Способность читать области Lead-in и Lead-out : Нет
Заполнение пропущенных сэмплов тишиной : Да
Удаление блоков с тишиной в начале и конце : Нет
При вычислениях CRC использовались нулевые сэмплы : Да
Интерфейс : Встроенный Win32-интерфейс для Win NT/2000

Выходной формат : Внутренние WAV-операции
Формат сэмплов : 44.100 Гц; 16 бит; стерео

TOC извлечённого CD

Трек | Старт | Длительность | Начальный сектор | Конечный сектор
---------------------------------------------------------------------
1 | 0:00.00 | 3:23.34 | 0 | 15258
2 | 3:23.34 | 2:27.06 | 15259 | 26289
3 | 5:50.40 | 5:42.49 | 26290 | 51988
4 | 11:33.14 | 2:49.00 | 51989 | 64663
5 | 14:22.14 | 3:17.48 | 64664 | 79486
6 | 17:39.62 | 3:36.16 | 79487 | 95702
7 | 21:16.03 | 2:05.01 | 95703 | 105078
8 | 23:21.04 | 2:36.08 | 105079 | 116786
9 | 25:57.12 | 2:49.56 | 116787 | 129517
10 | 28:46.68 | 7:43.28 | 129518 | 164270
11 | 36:30.21 | 3:42.35 | 164271 | 180955

Характеристики диапазона извлечения и сообщения об ошибках

Выбранный диапазон

Имя файла C:\Олег Погудин - Песнопения иеромонаха Романа CD2.wav

Пиковый уровень 98.9 %
Скорость извлечения 3.3 X
Качество диапазона 99.9 %
CRC копии 9A9EDF87
Копирование... OK

Ошибок не произошло

Конец отчёта

==== Контрольная сумма отчёта FE9C0FED774DF09B071B8FE91E29515E4EF8362B2C7F60F82101EC980712D26F ====
Download

Войдите на сайт, чтобы увидеть полную информацию.

Как скачивать  ·   Правила трекера

[Профиль]  [ЛС] 
Показать сообщения:    
Ответить на тему

Текущее время: 20-Сен 02:40

Часовой пояс: GMT + 4



Вы не можете начинать темы
Вы не можете отвечать на сообщения
Вы не можете редактировать свои сообщения
Вы не можете удалять свои сообщения
Вы не можете голосовать в опросах
Вы не можете прикреплять файлы к сообщениям
Вы не можете скачивать файлы