Loading...
Error

(Christian Rock) Протоиерей Олег Скобля - Светлая БеZконечность - 2009, APE (image + .cue)

Ответить на тему
 
Автор Сообщение

mpstudio

Стаж: 6 лет 8 месяцев

Сообщений: 16

Russia

post 21-Янв-2011 20:58

[Цитировать] 

Протоиерей Олег Скобля - Светлая БеZконечность

pic
Страна: Россия
Жанр: Christian Rock
Год выпуска: 2009
Формат: APE (image + .cue)
Продолжительность: 66:48
Трэклист:
Цикл "Рокер"
1. Знаю 4.24
2. Свеча 5.12
3. Река 4.54
Цикл "Дюны"
4. Иероглиф 3.54
5. Отступник 3.31
6. Нечаянная радость 3.41
7. Крылья 4.02
8. Сентябрь 4.20
9. Моя звезда 4.48
Цикл "Небесный человек"
10. Посох и крест 4.43
11. Небесный человек 3.14
12. Иероглиф (вариант) 3.52

13. Пассия (новая версия) 5.05
14. Крещенский снег (новая версия) 4.12
15. Под покровом синей мантии (новая версия) 5.29
Дополнительная информация: Автор текста, музыки, вокал, бэк-вокал: Олег Скобля
Гитары, клавишные, перкуссия, бэк-вокал: Валерий Кочегуро.
Альбом записан и сведен на студии "АннаСтасия" в 2009-2010 гг.
Звукорежиссер: Валерий Кочегуро.

Сканы обложек и диска включены в раздачу
Лог создания рипа
[pre]
Exact Audio Copy V0.99 prebeta 5 from 4. May 2009

EAC extraction logfile from 13. January 2011, 23:39

Олег Скобля / Светлая БеZконечность

Used drive : _NEC DVD_RW ND-4571A Adapter: 0 ID: 0

Read mode : Secure
Utilize accurate stream : Yes
Defeat audio cache : Yes
Make use of C2 pointers : No

Read offset correction : 48
Overread into Lead-In and Lead-Out : No
Fill up missing offset samples with silence : Yes
Delete leading and trailing silent blocks : No
Null samples used in CRC calculations : Yes
Used interface : Native Win32 interface for Win NT & 2000

Used output format : Internal WAV Routines
Sample format : 44.100 Hz; 16 Bit; Stereo

TOC of the extracted CD

Track | Start | Length | Start sector | End sector
---------------------------------------------------------
1 | 0:00.00 | 4:17.33 | 0 | 19307
2 | 4:17.33 | 5:13.70 | 19308 | 42852
3 | 9:31.28 | 4:56.02 | 42853 | 65054
4 | 14:27.30 | 3:58.65 | 65055 | 82969
5 | 18:26.20 | 4:25.34 | 82970 | 102878
6 | 22:51.54 | 3:45.54 | 102879 | 119807
7 | 26:37.33 | 4:06.10 | 119808 | 138267
8 | 30:43.43 | 4:35.06 | 138268 | 158898
9 | 35:18.49 | 4:50.14 | 158899 | 180662
10 | 40:08.63 | 4:47.21 | 180663 | 202208
11 | 44:56.09 | 3:16.03 | 202209 | 216911
12 | 48:12.12 | 3:41.49 | 216912 | 233535
13 | 51:53.61 | 5:09.16 | 233536 | 256726
14 | 57:03.02 | 4:15.71 | 256727 | 275922
15 | 61:18.73 | 5:29.37 | 275923 | 300634

Range status and errors

Selected range

Filename D:\Music\Олег Скобля\Олег Скобля - Светлая БеZконечность\Олег Скобля - Светлая БеZконечность.wav

Peak level 98.8 %
Range quality 100.0 %
Test CRC B1C7C021
Copy CRC B1C7C021
Copy OK

No errors occurred

End of status report
[/pre]
Download

Войдите для скачивания торрент-файла

Как скачивать  ·   Правила трекера



Последний раз редактировалось: mpstudio (2014-05-07 01:14), всего редактировалось 2 раз(а)
[Профиль]  [ЛС] 

Игорь Пибаев

Стаж: 7 лет 3 месяца

Сообщений: 204

Russia

post 21-Янв-2011 21:09 (спустя 11 минут)

[Цитировать] 

Благодарю!
[Профиль]  [ЛС] 

Damian

Стаж: 7 лет

Сообщений: 1838

Откуда: Донбасс

Russia

post 21-Янв-2011 21:33 (спустя 23 минуты)

[Цитировать] 

Уважаю Скоблю!

_________________
Помолимся!
[Профиль]  [ЛС] 

bloxin

Стаж: 7 лет 11 месяцев

Сообщений: 22

Откуда: Великие Луки

Russia

post 21-Янв-2011 21:41 (спустя 8 минут)

[Цитировать] 

Послушаем. СпасиБо.

_________________
мы играли вам на свирели, и вы не плясали; мы пели вам плачевные песни, и вы не плакали
[Профиль]  [ЛС] 

Сергий Магнитогорский

Стаж: 7 лет 4 месяца

Сообщений: 97

Откуда: Магнитогорск

Russia

post 21-Янв-2011 22:11 (спустя 29 минут)

[Цитировать] 

Благодарю!

_________________
Слава Богу за вся!
[Профиль]  [ЛС] 

mpstudio

Стаж: 6 лет 8 месяцев

Сообщений: 16

Russia

post 21-Янв-2011 22:54 (спустя 43 минуты)

[Цитировать] 

Всем- пожалуйста)
[Профиль]  [ЛС] 

dr.Sudorgin

Стаж: 7 лет 1 месяц

Сообщений: 96

Откуда: г. Новотроицк

Russia

post 22-Янв-2011 11:18 (спустя 12 часов)

[Цитировать] 

Спаси вас Господи за хорошую раздачу!
[Профиль]  [ЛС] 

Александр Ключарев

Стаж: 6 лет 1 месяц

Сообщений: 36

post 22-Янв-2011 12:32 (спустя 1 час 14 минут)

[Цитировать] 

Отлично !
[Профиль]  [ЛС] 

максим лукманов

Стаж: 6 лет 11 месяцев

Сообщений: 555

Откуда: Россия

Russia

post 22-Янв-2011 16:49 (спустя 4 часа)

[Цитировать] 

Спаси вас Господи!

_________________
Начало премудрости-Страх Господень.
[Профиль]  [ЛС] 

Игорь I

Стаж: 7 лет 7 месяцев

Сообщений: 1504

Russia

post 22-Янв-2011 20:02 (спустя 3 часа)

[Цитировать] 

Благодарю!
[Профиль]  [ЛС] 

ann18

Стаж: 7 лет 2 месяца

Сообщений: 177

Откуда: Иркутск

Russia

post 22-Янв-2011 20:37 (спустя 35 минут)

[Цитировать] 

Очень благодарю!
[Профиль]  [ЛС] 

GROTESK

Стаж: 7 лет 7 месяцев

Сообщений: 78

Откуда: Краснодон

Ukraine

post 04-Дек-2011 10:41 (спустя 10 месяцев)

[Цитировать] 

Спаси Вас Господи и всех православных христиан
[Профиль]  [ЛС] 

rostik

Стаж: 7 лет 8 месяцев

Сообщений: 42

Откуда: Днепропетровск

Ukraine

post 15-Июн-2012 01:13 (спустя 6 месяцев)

[Цитировать] 

Спасибо! +
[Профиль]  [ЛС] 

art 113658745CAE

Стаж: 9 месяцев

Сообщений: 25

post 02-Сен-2016 22:14 (спустя 4 года 2 месяца)

[Цитировать] 

А есть где-нибудь новые Альбомы, в MP3 ?
[Профиль]  [ЛС] 
Показать сообщения:    
Ответить на тему

Текущее время: 10-Дек 16:40

Часовой пояс: GMT + 4



Вы не можете начинать темы
Вы не можете отвечать на сообщения
Вы не можете редактировать свои сообщения
Вы не можете удалять свои сообщения
Вы не можете голосовать в опросах
Вы не можете прикреплять файлы к сообщениям
Вы не можете скачивать файлы