Loading...
Error

(Песни авторов и исполнителей (lossless).) Светлана Копылова. "Хрупкая мечта". Песни-притчи - 4. По заповедям Божиим. - 2011, APE (image + .cue), lossless

Ответить на тему
Статистика раздачи
Скачали: [ 2 ]
   
 
Автор Сообщение

СЕРГУЛЕТ

Стаж: 7 лет 9 месяцев

Сообщений: 2639

Откуда: LA ROMANA

Dominicanrep

post 15-Ноя-2011 21:20

[Цитировать] 

Светлана Копылова. "Хрупкая мечта". Песни-притчи - 4. По заповедям Божиим.

pic
Страна: Россия.
Жанр: Песни авторов и исполнителей (lossless).
Год выпуска: 2011
Формат: APE (image + .cue)
Битрейт аудио: lossless
Продолжительность: 00:32:00
Трэклист:
01. Я-Господь Бог твой.
02. Не сотвори себе кумира.
03. Не произноси имени Господа всуе.
04. Помни день седьмой.
05. Почитай отца и мать.
06. Не убивай.
07. Не прелюбодействуй.
08. Не кради.
09. Не лжесвидетельствуй.
10. Не желай того, что есть у другого.
Содержание+Обложки
picpicpic
EAC log
Exact Audio Copy V1.0 beta 2 from 29. April 2011

Отчёт EAC об извлечении, выполненном 15. ноября 2011, 20:02

Светлана Копылова / Хрупкая мечта

Дисковод: ASUS DRW-2014L1T Adapter: 2 ID: 1

Режим чтения : Достоверность
Использование точного потока : Да
Отключение кэша аудио : Да
Использование указателей C2 : Нет

Коррекция смещения при чтении : 6
Способность читать области Lead-in и Lead-out : Нет
Заполнение пропущенных сэмплов тишиной : Да
Удаление блоков с тишиной в начале и конце : Нет
При вычислениях CRC использовались нулевые сэмплы : Да
Интерфейс : Встроенный Win32-интерфейс для Win NT/2000

Выходной формат : Внутренние WAV-операции
Формат сэмплов : 44.100 Гц; 16 бит; стерео

TOC извлечённого CD

Трек | Старт | Длительность | Начальный сектор | Конечный сектор
---------------------------------------------------------------------
1 | 0:00.00 | 1:47.32 | 0 | 8056
2 | 1:47.32 | 2:57.20 | 8057 | 21351
3 | 4:44.52 | 1:57.49 | 21352 | 30175
4 | 6:42.26 | 2:08.54 | 30176 | 39829
5 | 8:51.05 | 4:31.27 | 39830 | 60181
6 | 13:22.32 | 3:36.09 | 60182 | 76390
7 | 16:58.41 | 4:06.71 | 76391 | 94911
8 | 21:05.37 | 3:22.00 | 94912 | 110061
9 | 24:27.37 | 4:04.30 | 110062 | 128391
10 | 28:31.67 | 3:02.55 | 128392 | 142096

Характеристики диапазона извлечения и сообщения об ошибках

Выбранный диапазон

Имя файла C:\Светлана Копылова - Хрупкая мечта.wav

Подозрительная позиция 0:04:21
Подозрительная позиция 0:07:10

Пиковый уровень 100.0 %
Скорость извлечения 3.1 X
Качество диапазона 99.8 %
CRC копии 7BF18F97
Копирование завершено

Были ошибки

Конец отчёта

==== Контрольная сумма отчёта F97F088BE0E376E12EC2056BEBD196B7F1946B51DDED51E442DBDD47F0D0E226 ====
Download

Войдите для скачивания торрент-файла

Как скачивать  ·   Правила трекера

[Профиль]  [ЛС] 

Игорь I

Стаж: 7 лет 7 месяцев

Сообщений: 1503

Russia

post 16-Ноя-2011 14:30 (спустя 17 часов)

[Цитировать] 

Благодарю
[Профиль]  [ЛС] 

р.Б. Владимир

Стаж: 7 лет 7 месяцев

Сообщений: 8

Откуда: Челябинск

Russia

post 24-Ноя-2011 18:49 (спустя 8 дней)

[Цитировать] 

Спасибо
[Профиль]  [ЛС] 

ВикторияГончарова

Стаж: 6 лет 11 месяцев

Сообщений: 3

Ukraine

post 06-Дек-2011 21:37 (спустя 12 дней)

[Цитировать] 

Спаси Господи за труды ваши!
[Профиль]  [ЛС] 

andrew123

Стаж: 5 лет 8 месяцев

Сообщений: 47

post 11-Дек-2011 18:26 (спустя 4 дня)

[Цитировать] 

Хороший альбом!Спасибо!Но 1-й всё равно-самый любимый! Smile
[Профиль]  [ЛС] 

ХатаХомяка

Стаж: 4 года 7 месяцев

Сообщений: 31

Russia

post 09-Апр-2012 11:27 (спустя 3 месяца 28 дней)

[Цитировать] 

Спасибо !!!
[Профиль]  [ЛС] 

МИША-К

Стаж: 4 года 8 месяцев

Сообщений: 11

Russia

post 13-Авг-2012 21:00 (спустя 4 месяца 4 дня)

[Цитировать] 

Здорово!!! Мне очень понравилось. Слушайте и другие её альбомы.
[Профиль]  [ЛС] 

eestimees

Стаж: 7 лет 6 месяцев

Сообщений: 21

Estonia

post 06-Фев-2013 02:53 (спустя 5 месяцев 23 дня)

[Цитировать] 

Большое спасибо!!
[Профиль]  [ЛС] 

stepan-frunze

Стаж: 7 лет 9 месяцев

Сообщений: 2565

Russia

post 17-Май-2013 18:46 (спустя 3 месяца 11 дней)

[Цитировать] 

Спаси Господи за труды ваши!
[Профиль]  [ЛС] 

ksprayer

Стаж: 2 года 3 месяца

Сообщений: 133

Belarus

post 02-Апр-2015 14:39 (спустя 1 год 10 месяцев)

[Цитировать] 

Спаси Вас Господи!
[Профиль]  [ЛС] 
Показать сообщения:    
Ответить на тему

Текущее время: 05-Дек 00:18

Часовой пояс: GMT + 4



Вы не можете начинать темы
Вы не можете отвечать на сообщения
Вы не можете редактировать свои сообщения
Вы не можете удалять свои сообщения
Вы не можете голосовать в опросах
Вы не можете прикреплять файлы к сообщениям
Вы не можете скачивать файлы