Loading...
Error

(Духовные стихи и канты) А.Емельянов, И.Мыльников - Духовные стихи. Выпуски 1-3 - 2004, FLAC (tracks), lossless

Ответить на тему
Статистика раздачи
no
   
 
Автор Сообщение

etrusk

Стаж: 6 лет 2 месяца

Сообщений: 128

Russia

post 28-Авг-2011 22:30

[Цитировать] 

А.Емельянов, И.Мыльников - Духовные стихи. Выпуски 1-3

pic
Страна: Россия
Жанр: Духовные стихи и канты
Год выпуска: 2004-05
Формат: FLAC (tracks)
Битрейт аудио: lossless
Продолжительность: 3:00:57
Трэклист:
CD1 - 0:56:01
01. Покаянная молитва - 3:39
02. Пред образом Спасителя - 4:10
03. О Содоме - 3:14
04. Чудное озеро Геннисаретское - 2:32
05. В воскресенье рано - 1:34
06. Смерть Авеля - 4:38
07. В чистом поле при долине - 3:05
08. Колыбельная - 3:28
09. Притча о блудном сыне - 4:14
10. Стих об Иоасафе-царевиче - 3:53
11. О Закхее - 3:23
12. Пройдут века, пройдут и годы - 3:48
13. Вы, голуби - 1:43
14. Душа моя прегрешная - 2:43
15. Солнце и месяц померкнут - 2:39
16. Всюду солнце греет - 3:16
17. О числах - 4:01

CD2 - 0:49:44
01. Стих к Богу молитвенный - 4:08
02. Боярыня Морозова - 3:51
03. Был у Христа младенца сад - 2:49
04. Об Аввакуме - 4:45
05. Вот лобное место - 3:24
06. В златокованную трубу - 2:31
07. Как ходил же грешный человече - 3:13
08. Коль славен наш Господь - 3:43
09. О Мартиньяне - 9:45
10. Обращение к Ангелу - 7:19
11. Христос и самарянка - 4:16

CD3 - 1:15:11
01. Вступление - 4:02
02. Агница - 6:45
03. Гора Афон - 8:25
04. Стих о последнем времени - 3:59
05. Слава в вышних Богу - 5:56
06. Обращение к душе - 3:19
07. Два Ангела - 4:52
08. Житейское море - 3:19
09. Младенец (А.Холмогоров) - 3:58
10. К водам Иорданским - 5:52
11. Потоп - 5:32
12. Смерть апостола Петра - 6:46
13. Се жених грядет - 2:14
14. Стих печального странника - 6:17
15. Стих к Богородице молитвенный - 3:56
Дополнительная информация:
EAC log CD1
Exact Audio Copy V0.99 prebeta 5 from 4. May 2009

Отчёт EAC об извлечении, выполненном 22. апреля 2011, 0:46

А.Емельянов, И.Мыльников / Духовные стихи. Выпуск 1

Дисковод: Optiarc DVD RW AD-7200S Adapter: 5 ID: 0

Режим чтения : Достоверность
Использование точного потока : Да
Отключение кэша аудио : Да
Использование указателей C2 : Нет

Коррекция смещения при чтении : 48
Способность читать области Lead-in и Lead-out : Нет
Заполнение пропущенных сэмплов тишиной : Да
Удаление блоков с тишиной в начале и конце : Нет
При вычислениях CRC использовались нулевые сэмплы : Да
Интерфейс : Встроенный Win32-интерфейс для Win NT/2000
Обработка зазоров : Добавлено к предыдущему треку

Выходной формат : Внутренние WAV-операции
Формат сэмплов : 44.100 Гц; 16 бит; стерео

TOC извлечённого CD

Трек | Старт | Длительность | Начальный сектор | Конечный сектор
---------------------------------------------------------------------
1 | 0:00.00 | 3:39.31 | 0 | 16455
2 | 3:39.31 | 4:09.71 | 16456 | 35201
3 | 7:49.27 | 3:14.37 | 35202 | 49788
4 | 11:03.64 | 2:31.64 | 49789 | 61177
5 | 13:35.53 | 1:33.39 | 61178 | 68191
6 | 15:09.17 | 4:37.58 | 68192 | 89024
7 | 19:47.00 | 3:05.26 | 89025 | 102925
8 | 22:52.26 | 3:28.02 | 102926 | 118527
9 | 26:20.28 | 4:14.06 | 118528 | 137583
10 | 30:34.34 | 3:53.21 | 137584 | 155079
11 | 34:27.55 | 3:22.66 | 155080 | 170295
12 | 37:50.46 | 3:48.26 | 170296 | 187421
13 | 41:38.72 | 1:43.24 | 187422 | 195170
14 | 43:22.21 | 2:42.64 | 195171 | 207384
15 | 46:05.10 | 2:39.09 | 207385 | 219318
16 | 48:44.19 | 3:15.60 | 219319 | 234003
17 | 52:00.04 | 4:01.33 | 234004 | 252111

Трек 1

Имя файла K:\Audio\Spiritual_Religious_Chants\Россия\Старообрядцы\Емельянов_Мыльников_Духовные стихи\CD1\01 - Track01.wav

Длина предзазора 0:00:02.00

Пиковый уровень 97.8 %
Качество трека 100.0 %
CRC теста 2A4E0DC8
CRC копии 2A4E0DC8
Трек не обнаружен в базе AccurateRip
Копирование... OK

Трек 2

Имя файла K:\Audio\Spiritual_Religious_Chants\Россия\Старообрядцы\Емельянов_Мыльников_Духовные стихи\CD1\02 - Track02.wav

Пиковый уровень 96.4 %
Качество трека 100.0 %
CRC теста 746FC83F
CRC копии 746FC83F
Трек не обнаружен в базе AccurateRip
Копирование... OK

Трек 3

Имя файла K:\Audio\Spiritual_Religious_Chants\Россия\Старообрядцы\Емельянов_Мыльников_Духовные стихи\CD1\03 - Track03.wav

Пиковый уровень 97.9 %
Качество трека 100.0 %
CRC теста 72752592
CRC копии 72752592
Трек не обнаружен в базе AccurateRip
Копирование... OK

Трек 4

Имя файла K:\Audio\Spiritual_Religious_Chants\Россия\Старообрядцы\Емельянов_Мыльников_Духовные стихи\CD1\04 - Track04.wav

Пиковый уровень 97.9 %
Качество трека 100.0 %
CRC теста BB79D5E5
CRC копии BB79D5E5
Трек не обнаружен в базе AccurateRip
Копирование... OK

Трек 5

Имя файла K:\Audio\Spiritual_Religious_Chants\Россия\Старообрядцы\Емельянов_Мыльников_Духовные стихи\CD1\05 - Track05.wav

Пиковый уровень 98.3 %
Качество трека 100.0 %
CRC теста 50D9B700
CRC копии 50D9B700
Трек не обнаружен в базе AccurateRip
Копирование... OK

Трек 6

Имя файла K:\Audio\Spiritual_Religious_Chants\Россия\Старообрядцы\Емельянов_Мыльников_Духовные стихи\CD1\06 - Track06.wav

Пиковый уровень 97.9 %
Качество трека 100.0 %
CRC теста 510AC6A4
CRC копии 510AC6A4
Трек не обнаружен в базе AccurateRip
Копирование... OK

Трек 7

Имя файла K:\Audio\Spiritual_Religious_Chants\Россия\Старообрядцы\Емельянов_Мыльников_Духовные стихи\CD1\07 - Track07.wav

Пиковый уровень 97.9 %
Качество трека 100.0 %
CRC теста 61CB0CD9
CRC копии 61CB0CD9
Трек не обнаружен в базе AccurateRip
Копирование... OK

Трек 8

Имя файла K:\Audio\Spiritual_Religious_Chants\Россия\Старообрядцы\Емельянов_Мыльников_Духовные стихи\CD1\08 - Track08.wav

Пиковый уровень 97.9 %
Качество трека 100.0 %
CRC теста 7245D9A6
CRC копии 7245D9A6
Трек не обнаружен в базе AccurateRip
Копирование... OK

Трек 9

Имя файла K:\Audio\Spiritual_Religious_Chants\Россия\Старообрядцы\Емельянов_Мыльников_Духовные стихи\CD1\09 - Track09.wav

Пиковый уровень 97.9 %
Качество трека 100.0 %
CRC теста EE87FB82
CRC копии EE87FB82
Трек не обнаружен в базе AccurateRip
Копирование... OK

Трек 10

Имя файла K:\Audio\Spiritual_Religious_Chants\Россия\Старообрядцы\Емельянов_Мыльников_Духовные стихи\CD1\10 - Track10.wav

Пиковый уровень 96.4 %
Качество трека 100.0 %
CRC теста A9967993
CRC копии A9967993
Трек не обнаружен в базе AccurateRip
Копирование... OK

Трек 11

Имя файла K:\Audio\Spiritual_Religious_Chants\Россия\Старообрядцы\Емельянов_Мыльников_Духовные стихи\CD1\11 - Track11.wav

Пиковый уровень 98.8 %
Качество трека 99.9 %
CRC теста 0A52213D
CRC копии 0A52213D
Трек не обнаружен в базе AccurateRip
Копирование... OK

Трек 12

Имя файла K:\Audio\Spiritual_Religious_Chants\Россия\Старообрядцы\Емельянов_Мыльников_Духовные стихи\CD1\12 - Track12.wav

Пиковый уровень 97.9 %
Качество трека 100.0 %
CRC теста 4B908FAD
CRC копии 4B908FAD
Трек не обнаружен в базе AccurateRip
Копирование... OK

Трек 13

Имя файла K:\Audio\Spiritual_Religious_Chants\Россия\Старообрядцы\Емельянов_Мыльников_Духовные стихи\CD1\13 - Track13.wav

Пиковый уровень 97.9 %
Качество трека 100.0 %
CRC теста 861BC4B6
CRC копии 861BC4B6
Трек не обнаружен в базе AccurateRip
Копирование... OK

Трек 14

Имя файла K:\Audio\Spiritual_Religious_Chants\Россия\Старообрядцы\Емельянов_Мыльников_Духовные стихи\CD1\14 - Track14.wav

Пиковый уровень 98.7 %
Качество трека 100.0 %
CRC теста 8877A7F3
CRC копии 8877A7F3
Трек не обнаружен в базе AccurateRip
Копирование... OK

Трек 15

Имя файла K:\Audio\Spiritual_Religious_Chants\Россия\Старообрядцы\Емельянов_Мыльников_Духовные стихи\CD1\15 - Track15.wav

Пиковый уровень 93.8 %
Качество трека 100.0 %
CRC теста 1DDB8510
CRC копии 1DDB8510
Трек не обнаружен в базе AccurateRip
Копирование... OK

Трек 16

Имя файла K:\Audio\Spiritual_Religious_Chants\Россия\Старообрядцы\Емельянов_Мыльников_Духовные стихи\CD1\16 - Track16.wav

Пиковый уровень 97.5 %
Качество трека 100.0 %
CRC теста 782843F2
CRC копии 782843F2
Трек не обнаружен в базе AccurateRip
Копирование... OK

Трек 17

Имя файла K:\Audio\Spiritual_Religious_Chants\Россия\Старообрядцы\Емельянов_Мыльников_Духовные стихи\CD1\17 - Track17.wav

Пиковый уровень 97.9 %
Качество трека 99.9 %
CRC теста 6D7A2B04
CRC копии 6D7A2B04
Трек не обнаружен в базе AccurateRip
Копирование... OK

Ни одного трека нет в базе AccurateRip

Ошибок не произошло

Конец отчёта
EAC log CD2
Exact Audio Copy V0.99 prebeta 5 from 4. May 2009

Отчёт EAC об извлечении, выполненном 22. апреля 2011, 3:28

А.Емельянов, И.Мыльников / Духовные стихи. Выпуск 2

Дисковод: Optiarc DVD RW AD-7200S Adapter: 5 ID: 0

Режим чтения : Достоверность
Использование точного потока : Да
Отключение кэша аудио : Да
Использование указателей C2 : Нет

Коррекция смещения при чтении : 48
Способность читать области Lead-in и Lead-out : Нет
Заполнение пропущенных сэмплов тишиной : Да
Удаление блоков с тишиной в начале и конце : Нет
При вычислениях CRC использовались нулевые сэмплы : Да
Интерфейс : Встроенный Win32-интерфейс для Win NT/2000
Обработка зазоров : Добавлено к предыдущему треку

Выходной формат : Внутренние WAV-операции
Формат сэмплов : 44.100 Гц; 16 бит; стерео

TOC извлечённого CD

Трек | Старт | Длительность | Начальный сектор | Конечный сектор
---------------------------------------------------------------------
1 | 0:00.00 | 4:08.09 | 0 | 18608
2 | 4:08.09 | 3:51.09 | 18609 | 35942
3 | 7:59.18 | 2:48.55 | 35943 | 48597
4 | 10:47.73 | 4:44.50 | 48598 | 69947
5 | 15:32.48 | 3:24.10 | 69948 | 85257
6 | 18:56.58 | 2:31.09 | 85258 | 96591
7 | 21:27.67 | 3:13.31 | 96592 | 111097
8 | 24:41.23 | 3:42.41 | 111098 | 127788
9 | 28:23.64 | 9:45.29 | 127789 | 171692
10 | 38:09.18 | 7:18.61 | 171693 | 204603
11 | 45:28.04 | 4:16.19 | 204604 | 223822

Трек 1

Имя файла K:\Audio\Spiritual_Religious_Chants\Россия\Старообрядцы\Емельянов_Мыльников_Духовные стихи\CD2\01 - Track01.wav

Длина предзазора 0:00:02.00

Пиковый уровень 97.9 %
Качество трека 100.0 %
CRC теста 07644357
CRC копии 07644357
Трек не обнаружен в базе AccurateRip
Копирование... OK

Трек 2

Имя файла K:\Audio\Spiritual_Religious_Chants\Россия\Старообрядцы\Емельянов_Мыльников_Духовные стихи\CD2\02 - Track02.wav

Пиковый уровень 97.9 %
Качество трека 99.9 %
CRC теста 1E25D90F
CRC копии 1E25D90F
Трек не обнаружен в базе AccurateRip
Копирование... OK

Трек 3

Имя файла K:\Audio\Spiritual_Religious_Chants\Россия\Старообрядцы\Емельянов_Мыльников_Духовные стихи\CD2\03 - Track03.wav

Пиковый уровень 97.9 %
Качество трека 100.0 %
CRC теста 62842AE4
CRC копии 62842AE4
Трек не обнаружен в базе AccurateRip
Копирование... OK

Трек 4

Имя файла K:\Audio\Spiritual_Religious_Chants\Россия\Старообрядцы\Емельянов_Мыльников_Духовные стихи\CD2\04 - Track04.wav

Пиковый уровень 97.9 %
Качество трека 100.0 %
CRC теста 60B9F606
CRC копии 60B9F606
Трек не обнаружен в базе AccurateRip
Копирование... OK

Трек 5

Имя файла K:\Audio\Spiritual_Religious_Chants\Россия\Старообрядцы\Емельянов_Мыльников_Духовные стихи\CD2\05 - Track05.wav

Пиковый уровень 97.9 %
Качество трека 100.0 %
CRC теста 766C4A39
CRC копии 766C4A39
Трек не обнаружен в базе AccurateRip
Копирование... OK

Трек 6

Имя файла K:\Audio\Spiritual_Religious_Chants\Россия\Старообрядцы\Емельянов_Мыльников_Духовные стихи\CD2\06 - Track06.wav

Пиковый уровень 97.9 %
Качество трека 100.0 %
CRC теста B3D92703
CRC копии B3D92703
Трек не обнаружен в базе AccurateRip
Копирование... OK

Трек 7

Имя файла K:\Audio\Spiritual_Religious_Chants\Россия\Старообрядцы\Емельянов_Мыльников_Духовные стихи\CD2\07 - Track07.wav

Пиковый уровень 97.9 %
Качество трека 100.0 %
CRC теста 8E4F5CEA
CRC копии 8E4F5CEA
Трек не обнаружен в базе AccurateRip
Копирование... OK

Трек 8

Имя файла K:\Audio\Spiritual_Religious_Chants\Россия\Старообрядцы\Емельянов_Мыльников_Духовные стихи\CD2\08 - Track08.wav

Пиковый уровень 97.9 %
Качество трека 100.0 %
CRC теста 093432D7
CRC копии 093432D7
Трек не обнаружен в базе AccurateRip
Копирование... OK

Трек 9

Имя файла K:\Audio\Spiritual_Religious_Chants\Россия\Старообрядцы\Емельянов_Мыльников_Духовные стихи\CD2\09 - Track09.wav

Пиковый уровень 97.9 %
Качество трека 100.0 %
CRC теста B70D651A
CRC копии B70D651A
Трек не обнаружен в базе AccurateRip
Копирование... OK

Трек 10

Имя файла K:\Audio\Spiritual_Religious_Chants\Россия\Старообрядцы\Емельянов_Мыльников_Духовные стихи\CD2\10 - Track10.wav

Пиковый уровень 97.9 %
Качество трека 100.0 %
CRC теста 7580C368
CRC копии 7580C368
Трек не обнаружен в базе AccurateRip
Копирование... OK

Трек 11

Имя файла K:\Audio\Spiritual_Religious_Chants\Россия\Старообрядцы\Емельянов_Мыльников_Духовные стихи\CD2\11 - Track11.wav

Пиковый уровень 97.9 %
Качество трека 100.0 %
CRC теста A0153622
CRC копии A0153622
Трек не обнаружен в базе AccurateRip
Копирование... OK

Ни одного трека нет в базе AccurateRip

Ошибок не произошло

Конец отчёта
EAC log CD3
Exact Audio Copy V0.99 prebeta 5 from 4. May 2009

Отчёт EAC об извлечении, выполненном 22. апреля 2011, 9:00

А.Емельянов, И.Мыльников / Духовные стихи. Выпуск 3

Дисковод: Optiarc DVD RW AD-7200S Adapter: 5 ID: 0

Режим чтения : Достоверность
Использование точного потока : Да
Отключение кэша аудио : Да
Использование указателей C2 : Нет

Коррекция смещения при чтении : 48
Способность читать области Lead-in и Lead-out : Нет
Заполнение пропущенных сэмплов тишиной : Да
Удаление блоков с тишиной в начале и конце : Нет
При вычислениях CRC использовались нулевые сэмплы : Да
Интерфейс : Встроенный Win32-интерфейс для Win NT/2000
Обработка зазоров : Добавлено к предыдущему треку

Выходной формат : Внутренние WAV-операции
Формат сэмплов : 44.100 Гц; 16 бит; стерео

TOC извлечённого CD

Трек | Старт | Длительность | Начальный сектор | Конечный сектор
---------------------------------------------------------------------
1 | 0:00.00 | 4:01.54 | 0 | 18128
2 | 4:01.54 | 6:45.37 | 18129 | 48540
3 | 10:47.16 | 8:24.54 | 48541 | 86394
4 | 19:11.70 | 3:59.00 | 86395 | 104319
5 | 23:10.70 | 5:55.67 | 104320 | 131011
6 | 29:06.62 | 3:18.65 | 131012 | 145926
7 | 32:25.52 | 4:51.60 | 145927 | 167811
8 | 37:17.37 | 3:18.41 | 167812 | 182702
9 | 40:36.03 | 3:58.00 | 182703 | 200552
10 | 44:34.03 | 5:51.73 | 200553 | 226950
11 | 50:26.01 | 5:31.45 | 226951 | 251820
12 | 55:57.46 | 6:46.15 | 251821 | 282285
13 | 62:43.61 | 2:14.00 | 282286 | 292335
14 | 64:57.61 | 6:17.15 | 292336 | 320625
15 | 71:15.01 | 3:56.17 | 320626 | 338342

Трек 1

Имя файла K:\Audio\Spiritual_Religious_Chants\Россия\Старообрядцы\Емельянов_Мыльников_Духовные стихи\CD3\01 - Track01.wav

Длина предзазора 0:00:02.00

Пиковый уровень 97.9 %
Качество трека 99.9 %
CRC теста 90E6BBD2
CRC копии 90E6BBD2
Трек не обнаружен в базе AccurateRip
Копирование... OK

Трек 2

Имя файла K:\Audio\Spiritual_Religious_Chants\Россия\Старообрядцы\Емельянов_Мыльников_Духовные стихи\CD3\02 - Track02.wav

Пиковый уровень 97.9 %
Качество трека 100.0 %
CRC теста BC0BC937
CRC копии BC0BC937
Трек не обнаружен в базе AccurateRip
Копирование... OK

Трек 3

Имя файла K:\Audio\Spiritual_Religious_Chants\Россия\Старообрядцы\Емельянов_Мыльников_Духовные стихи\CD3\03 - Track03.wav

Пиковый уровень 97.9 %
Качество трека 99.9 %
CRC теста FB82EBB4
CRC копии FB82EBB4
Трек не обнаружен в базе AccurateRip
Копирование... OK

Трек 4

Имя файла K:\Audio\Spiritual_Religious_Chants\Россия\Старообрядцы\Емельянов_Мыльников_Духовные стихи\CD3\04 - Track04.wav

Пиковый уровень 97.9 %
Качество трека 100.0 %
CRC теста 004ED2BB
CRC копии 004ED2BB
Трек не обнаружен в базе AccurateRip
Копирование... OK

Трек 5

Имя файла K:\Audio\Spiritual_Religious_Chants\Россия\Старообрядцы\Емельянов_Мыльников_Духовные стихи\CD3\05 - Track05.wav

Пиковый уровень 97.9 %
Качество трека 100.0 %
CRC теста 71E481DF
CRC копии 71E481DF
Трек не обнаружен в базе AccurateRip
Копирование... OK

Трек 6

Имя файла K:\Audio\Spiritual_Religious_Chants\Россия\Старообрядцы\Емельянов_Мыльников_Духовные стихи\CD3\06 - Track06.wav

Пиковый уровень 97.9 %
Качество трека 100.0 %
CRC теста 4FD6CB17
CRC копии 4FD6CB17
Трек не обнаружен в базе AccurateRip
Копирование... OK

Трек 7

Имя файла K:\Audio\Spiritual_Religious_Chants\Россия\Старообрядцы\Емельянов_Мыльников_Духовные стихи\CD3\07 - Track07.wav

Пиковый уровень 97.9 %
Качество трека 100.0 %
CRC теста 1F6BBF23
CRC копии 1F6BBF23
Трек не обнаружен в базе AccurateRip
Копирование... OK

Трек 8

Имя файла K:\Audio\Spiritual_Religious_Chants\Россия\Старообрядцы\Емельянов_Мыльников_Духовные стихи\CD3\08 - Track08.wav

Пиковый уровень 97.9 %
Качество трека 99.9 %
CRC теста 5D574589
CRC копии 5D574589
Трек не обнаружен в базе AccurateRip
Копирование... OK

Трек 9

Имя файла K:\Audio\Spiritual_Religious_Chants\Россия\Старообрядцы\Емельянов_Мыльников_Духовные стихи\CD3\09 - Track09.wav

Пиковый уровень 97.9 %
Качество трека 100.0 %
CRC теста F0C56C29
CRC копии F0C56C29
Трек не обнаружен в базе AccurateRip
Копирование... OK

Трек 10

Имя файла K:\Audio\Spiritual_Religious_Chants\Россия\Старообрядцы\Емельянов_Мыльников_Духовные стихи\CD3\10 - Track10.wav

Пиковый уровень 97.9 %
Качество трека 99.9 %
CRC теста 92C78603
CRC копии 92C78603
Трек не обнаружен в базе AccurateRip
Копирование... OK

Трек 11

Имя файла K:\Audio\Spiritual_Religious_Chants\Россия\Старообрядцы\Емельянов_Мыльников_Духовные стихи\CD3\11 - Track11.wav

Пиковый уровень 97.9 %
Качество трека 100.0 %
CRC теста 04F22674
CRC копии 04F22674
Трек не обнаружен в базе AccurateRip
Копирование... OK

Трек 12

Имя файла K:\Audio\Spiritual_Religious_Chants\Россия\Старообрядцы\Емельянов_Мыльников_Духовные стихи\CD3\12 - Track12.wav

Пиковый уровень 97.9 %
Качество трека 100.0 %
CRC теста E6A93D14
CRC копии E6A93D14
Трек не обнаружен в базе AccurateRip
Копирование... OK

Трек 13

Имя файла K:\Audio\Spiritual_Religious_Chants\Россия\Старообрядцы\Емельянов_Мыльников_Духовные стихи\CD3\13 - Track13.wav

Пиковый уровень 97.9 %
Качество трека 100.0 %
CRC теста B57287C6
CRC копии B57287C6
Трек не обнаружен в базе AccurateRip
Копирование... OK

Трек 14

Имя файла K:\Audio\Spiritual_Religious_Chants\Россия\Старообрядцы\Емельянов_Мыльников_Духовные стихи\CD3\14 - Track14.wav

Пиковый уровень 97.9 %
Качество трека 99.9 %
CRC теста 2FAA125C
CRC копии 2FAA125C
Трек не обнаружен в базе AccurateRip
Копирование... OK

Трек 15

Имя файла K:\Audio\Spiritual_Religious_Chants\Россия\Старообрядцы\Емельянов_Мыльников_Духовные стихи\CD3\15 - Track15.wav

Пиковый уровень 97.9 %
Качество трека 100.0 %
CRC теста 3ED87797
CRC копии 3ED87797
Трек не обнаружен в базе AccurateRip
Копирование... OK

Ни одного трека нет в базе AccurateRip

Ошибок не произошло

Конец отчёта
Предлагаются духовные стихи в исполнении старообрядцев-поповцев (РПСЦ) из Сибири. Некоторые духовные стихи чисто старообрядческие, некоторые нет. Часть представленных стихов исполнялись такими исполнителями, как ансамбль "Сирин", Е.Смольянинова, П.Терентьева, ансамбль "Живая Старина" и другие.
По времени создания большинство стихов - 19-20 веков, какие-то древнее. По происхождению тоже различны. Так, некоторые, исходно - стихи русских поэтов 18-19 веков: "Коль славен наш Господь" - М.Н.Хераскова, до 1833 года бывший гимном Российской империи; "Был у Христа младенца сад" - А.Н.Плещеева. Некоторые - обработка кантов (или сами канты), популярных в России в 17-18 веках (например, стих "Потоп" - явно вирши второй половины 17 - начала 18 века).
Качество записей не всегда безупречно: на некоторых треках (особенно в первых двух выпусках) слышны шумы и помехи.
На втором диске названия треков и их порядок с обложки не соответствует фактическому.
Личное мнение: Не могу сказать, что мне очень сильно нравится данное исполнение (несколько академичное на мой взгляд), сделанное в двухголосной версии (предпочитаю всё же одноголосное или хоровое), к тому же в высоковатом регистре (мне кажется, некоторым стихам больше подошел бы низкий баритон или бас), однако сделано весьма достойно, к тому же объем многое искупает - таких цельных сборников немного.
MP3 - http://pravtor.ru/viewtopic.php?t=9650
Download

Войдите для скачивания торрент-файла

Как скачивать  ·   Правила трекера



Последний раз редактировалось: etrusk (2011-09-06 00:35), всего редактировалось 1 раз
[Профиль]  [ЛС] 

AFANATOS

Стаж: 6 лет 8 месяцев

Сообщений: 23

Russia

post 29-Авг-2011 18:22 (спустя 19 часов)

[Цитировать] 

Спаси Христос. Давно искал, очень редкий материал. Smile

_________________
Безсмертным себя я не считаю - я верю в Страшный Суд Господень.


Последний раз редактировалось: AFANATOS (2011-08-30 16:14), всего редактировалось 1 раз
[Профиль]  [ЛС] 

Юрий-Георгий

Стаж: 6 лет 11 месяцев

Сообщений: 44

Russia

post 29-Авг-2011 20:22 (спустя 1 час 59 минут)

[Цитировать] 

С любами о Господе, спасибо.
[Профиль]  [ЛС] 

sadhu

Стаж: 7 лет 9 месяцев

Сообщений: 55

Russia

post 30-Авг-2011 21:08 (спустя 1 день)

[Цитировать] 

спасибо!
[Профиль]  [ЛС] 

alfredgps

post 11-Фев-2012 13:14 (спустя 5 месяцев 11 дней)

[Цитировать] 

Отдельная благодарность автору раздачи за развернутый комментарий.
 

александрр1977

Стаж: 5 лет

Сообщений: 76

Russia

post 26-Мар-2013 22:36 (спустя 1 год 1 месяц)

[Цитировать] 

Благодарю!
[Профиль]  [ЛС] 
Показать сообщения:    
Ответить на тему

Текущее время: 05-Дек 20:36

Часовой пояс: GMT + 4



Вы не можете начинать темы
Вы не можете отвечать на сообщения
Вы не можете редактировать свои сообщения
Вы не можете удалять свои сообщения
Вы не можете голосовать в опросах
Вы не можете прикреплять файлы к сообщениям
Вы не можете скачивать файлы