Loading...
Error

(Остальная музыка.) "Помни о Вечном". (Музыкальная программа на стихи Рафаила Горевича (Алексей Астанин)).2CD. - 2002, APE (image + .cue), lossless

Ответить на тему
Статистика раздачи
Скачали: [ 3 ]
   
 
Автор Сообщение

СЕРГУЛЕТ

Стаж: 7 лет 10 месяцев

Сообщений: 2639

Откуда: LA ROMANA

Dominicanrep

post 27-Дек-2009 14:07

[Цитировать] 

"Помни о Вечном". (Музыкальная программа на стихи Рафаила Горевича (Алексей Астанин)).2CD.

pic
Страна: Россия.
Жанр: Остальная музыка.
Год выпуска: 2002
Формат: APE (image + .cue)
Битрейт аудио: lossless
Продолжительность: 00:43:41+00:35:28
Обложки+Содержание
picpicpic
EAC log
Exact Audio Copy V0.99 prebeta 5 from 4. May 2009

Отчёт EAC об извлечении, выполненном 25. декабря 2009, 11:37

Unknown Artist / Помни о вечном-1

Дисковод: ASUS DRW-2014L1T Adapter: 0 ID: 1

Режим чтения : Скоростной

Коррекция смещения при чтении : 6
Способность читать области Lead-in и Lead-out : Нет
Заполнение пропущенных сэмплов тишиной : Да
Удаление блоков с тишиной в начале и конце : Нет
При вычислениях CRC использовались нулевые сэмплы : Да
Интерфейс : Встроенный Win32-интерфейс для Win NT/2000

Выходной формат : Внутренние WAV-операции
Формат сэмплов : 44.100 Гц; 16 бит; стерео

TOC извлечённого CD

Трек | Старт | Длительность | Начальный сектор | Конечный сектор
---------------------------------------------------------------------
1 | 0:00.00 | 2:25.35 | 0 | 10909
2 | 2:25.35 | 1:53.18 | 10910 | 19402
3 | 4:18.53 | 2:34.61 | 19403 | 31013
4 | 6:53.39 | 1:57.29 | 31014 | 39817
5 | 8:50.68 | 3:48.22 | 39818 | 56939
6 | 12:39.15 | 1:46.09 | 56940 | 64898
7 | 14:25.24 | 1:48.14 | 64899 | 73012
8 | 16:13.38 | 1:26.42 | 73013 | 79504
9 | 17:40.05 | 1:33.56 | 79505 | 86535
10 | 19:13.61 | 1:50.46 | 86536 | 94831
11 | 21:04.32 | 1:51.60 | 94832 | 103216
12 | 22:56.17 | 2:07.66 | 103217 | 112807
13 | 25:04.08 | 1:41.32 | 112808 | 120414
14 | 26:45.40 | 1:26.00 | 120415 | 126864
15 | 28:11.40 | 1:57.09 | 126865 | 135648
16 | 30:08.49 | 1:31.69 | 135649 | 142542
17 | 31:40.43 | 0:59.66 | 142543 | 147033
18 | 32:40.34 | 2:47.43 | 147034 | 159601
19 | 35:28.02 | 1:12.11 | 159602 | 165012
20 | 36:40.13 | 2:22.55 | 165013 | 175717
21 | 39:02.68 | 1:51.53 | 175718 | 184095
22 | 40:54.46 | 1:28.53 | 184096 | 190748
23 | 42:23.24 | 1:16.04 | 190749 | 196452

Характеристики диапазона извлечения и сообщения об ошибках

Выбранный диапазон

Имя файла C:\Unknown Artist - Помни о вечном-1.wav

Проблемы синхронизации 0:00:38

Пиковый уровень 94.4 %
CRC копии 60D8F7A0
Копирование завершено

Ошибок не произошло

Конец отчёта

CD2.
Exact Audio Copy V0.99 prebeta 5 from 4. May 2009

Отчёт EAC об извлечении, выполненном 25. декабря 2009, 11:41

Unknown Artist / Помни о вечном-2

Дисковод: ASUS DRW-2014L1T Adapter: 0 ID: 1

Режим чтения : Скоростной

Коррекция смещения при чтении : 6
Способность читать области Lead-in и Lead-out : Нет
Заполнение пропущенных сэмплов тишиной : Да
Удаление блоков с тишиной в начале и конце : Нет
При вычислениях CRC использовались нулевые сэмплы : Да
Интерфейс : Встроенный Win32-интерфейс для Win NT/2000

Выходной формат : Внутренние WAV-операции
Формат сэмплов : 44.100 Гц; 16 бит; стерео

TOC извлечённого CD

Трек | Старт | Длительность | Начальный сектор | Конечный сектор
---------------------------------------------------------------------
1 | 0:00.00 | 2:05.47 | 0 | 9421
2 | 2:05.47 | 2:03.53 | 9422 | 18699
3 | 4:09.25 | 1:38.47 | 18700 | 26096
4 | 5:47.72 | 3:33.25 | 26097 | 42096
5 | 9:21.22 | 2:07.52 | 42097 | 51673
6 | 11:28.74 | 1:24.03 | 51674 | 57976
7 | 12:53.02 | 2:08.28 | 57977 | 67604
8 | 15:01.30 | 1:48.73 | 67605 | 75777
9 | 16:50.28 | 3:12.40 | 75778 | 90217
10 | 20:02.68 | 1:05.03 | 90218 | 95095
11 | 21:07.71 | 1:35.39 | 95096 | 102259
12 | 22:43.35 | 1:58.73 | 102260 | 111182
13 | 24:42.33 | 2:06.51 | 111183 | 120683
14 | 26:49.09 | 0:58.02 | 120684 | 125035
15 | 27:47.11 | 0:38.12 | 125036 | 127897
16 | 28:25.23 | 1:10.49 | 127898 | 133196
17 | 29:35.72 | 1:28.62 | 133197 | 139858
18 | 31:04.59 | 0:36.09 | 139859 | 142567
19 | 31:40.68 | 3:46.05 | 142568 | 159522

Характеристики диапазона извлечения и сообщения об ошибках

Выбранный диапазон

Имя файла C:\Unknown Artist - Помни о вечном-2.wav

Проблемы синхронизации 0:00:38

Пиковый уровень 95.5 %
CRC копии 524F1768
Копирование завершено

Ошибок не произошло

Конец отчёта
Дополнительная информация: Мужской камерный хор "Благозвонница" Патриаршего подворья Заиконоспасского монастыря.
Художественный руководитель-регент иеромонах Петр (Афанасьев).
Хормейстер-заслуженный артист России Е. В. Коротеев.
Download

Войдите для скачивания торрент-файла

Как скачивать  ·   Правила трекера



Последний раз редактировалось: СЕРГУЛЕТ (2010-04-18 17:45), всего редактировалось 1 раз
[Профиль]  [ЛС] 

Владиславович

post 07-Авг-2011 12:22 (спустя 1 год 7 месяцев)

[Цитировать] 

Спасибо большое!
 

СЕРГУЛЕТ

Стаж: 7 лет 10 месяцев

Сообщений: 2639

Откуда: LA ROMANA

Dominicanrep

post 05-Июн-2012 18:47 (спустя 9 месяцев)

[Цитировать] 

28 марта усоп Алексей Федорович из Старого Оскола.
Рафаил Горевич, Алексей Астанин - это его стихи...
[Профиль]  [ЛС] 
Показать сообщения:    
Ответить на тему

Текущее время: 09-Дек 04:06

Часовой пояс: GMT + 4



Вы не можете начинать темы
Вы не можете отвечать на сообщения
Вы не можете редактировать свои сообщения
Вы не можете удалять свои сообщения
Вы не можете голосовать в опросах
Вы не можете прикреплять файлы к сообщениям
Вы не можете скачивать файлы