Loading...
Error

(Остальная музыка.) "Гусли. Душа древней Руси". Алексей Уткин. - 2010, APE (image + .cue), lossless

Ответить на тему
Статистика раздачи
Скачали: [ 8 ]
   
 
Автор Сообщение

СЕРГУЛЕТ

Стаж: 7 лет 10 месяцев

Сообщений: 2639

Откуда: LA ROMANA

Dominicanrep

post 25-Апр-2011 18:47

[Цитировать] 

"Гусли. Душа древней Руси". Алексей Уткин.

pic
Страна: Россия. Алексей Уткин.
Жанр: Остальная музыка.
Год выпуска: 2010
Формат: APE (image + .cue)
Битрейт аудио: lossless
Продолжительность: 00:44:16
Описание: Альбом является своеобразным ключом,кодом,вводом в древнерусскую старину: и в сказочную и в православную. Звучание 5-и и 6-и струнных гуслей с железными и жильными струнами, словно окутывая переносит в далёкие времена былин и раннего православия на Руси. Время остановившись являет Вечность. Возникающее ощущение своеобразного "духа Руси" сопоставимо с древними храмами , соединяющими своим архитектурным величием времена былые и настоящие в одно.
Содержание+ Обложки
picpicpic
EAC log
Exact Audio Copy V1.0 beta 1 from 15. November 2010

Отчёт EAC об извлечении, выполненном 23. апреля 2011, 17:08

Алексей Уткин / Гусли Душа древней Руси

Дисковод: HL-DT-STDVDRAM GE20NU10 Adapter: 5 ID: 0

Режим чтения : Достоверность
Использование точного потока : Да
Отключение кэша аудио : Да
Использование указателей C2 : Нет

Коррекция смещения при чтении : 667
Способность читать области Lead-in и Lead-out : Нет
Заполнение пропущенных сэмплов тишиной : Да
Удаление блоков с тишиной в начале и конце : Нет
При вычислениях CRC использовались нулевые сэмплы : Да
Интерфейс : Встроенный Win32-интерфейс для Win NT/2000

Выходной формат : Внутренние WAV-операции
Формат сэмплов : 44.100 Гц; 16 бит; стерео

TOC извлечённого CD

Трек | Старт | Длительность | Начальный сектор | Конечный сектор
---------------------------------------------------------------------
1 | 0:00.00 | 3:20.18 | 0 | 15017
2 | 3:20.18 | 2:37.44 | 15018 | 26836
3 | 5:57.62 | 2:33.64 | 26837 | 38375
4 | 8:31.51 | 8:00.52 | 38376 | 74427
5 | 16:32.28 | 1:51.56 | 74428 | 82808
6 | 18:24.09 | 5:00.53 | 82809 | 105361
7 | 23:24.62 | 4:34.37 | 105362 | 125948
8 | 27:59.24 | 7:48.73 | 125949 | 161121
9 | 35:48.22 | 3:32.64 | 161122 | 177085
10 | 39:21.11 | 4:55.20 | 177086 | 199230

Характеристики диапазона извлечения и сообщения об ошибках

Выбранный диапазон

Имя файла C:\Users\Ирина\Desktop\Алексей Уткин - Гусли Душа древней Руси.wav

Пиковый уровень 98.3 %
Скорость извлечения 0.7 X
Качество диапазона 100.0 %
CRC копии 3E773DC0
Копирование... OK

Ошибок не произошло

Конец отчёта
Download

Войдите для скачивания торрент-файла

Как скачивать  ·   Правила трекера

[Профиль]  [ЛС] 

Странник1

Стаж: 7 лет

Сообщений: 2308

Russia

post 02-Май-2011 22:41 (спустя 7 дней)

[Цитировать] 

Спасибо
[Профиль]  [ЛС] 

Владиславович

post 07-Авг-2011 12:11 (спустя 3 месяца 4 дня)

[Цитировать] 

Спасибо за музыку наших истоков!
 

a1bllll

Стаж: 5 лет 9 месяцев

Сообщений: 272

Russia

post 08-Май-2013 15:09 (спустя 1 год 9 месяцев)

[Цитировать] 

Спаси Бог! Христос Воскресе!

_________________
Слава Богу за всё!
[Профиль]  [ЛС] 

_Андрей_

Стаж: 2 года 11 месяцев

Сообщений: 12

Russia

post 21-Дек-2013 22:30 (спустя 7 месяцев)

[Цитировать] 

Спаси Господи!
[Профиль]  [ЛС] 

SvetlanaSV

Стаж: 2 года 3 месяца

Сообщений: 74

post 06-Сен-2014 14:26 (спустя 8 месяцев)

[Цитировать] 

Спасибо!
[Профиль]  [ЛС] 
Показать сообщения:    
Ответить на тему

Текущее время: 08-Дек 18:08

Часовой пояс: GMT + 4



Вы не можете начинать темы
Вы не можете отвечать на сообщения
Вы не можете редактировать свои сообщения
Вы не можете удалять свои сообщения
Вы не можете голосовать в опросах
Вы не можете прикреплять файлы к сообщениям
Вы не можете скачивать файлы