Loading...
Error

(Духовные песни) Галина Лупандина Утро воскресное - 2002, APE (image + .cue) + mp3 320 Kbps

Страницы:  1, 2  След.

Ответить на тему
Статистика раздачи
Скачали: [ 7 ]
   
 
Автор Сообщение

сервп62

Стаж: 7 лет 9 месяцев

Сообщений: 303

post 26-Сен-2009 20:16

[Цитировать] 

pic
Галина Лупандина Утро воскресное


Страна: Россия
Жанр: Духовные песни
Год выпуска: 2002
Формат:: AРЕ (image + .cue) + MP3
Битрейт аудио: lossless + 320 Kbps
Дополнительно: В папке lossless выложены flac и cue файлы, в папке mp3 выложены файлы mp3 с битрейтом 320 Kbps, в папке обложки приложены сканы обложек и диска в разрешении 300 dpi
При добавлении закачки выбираем соответствующие папки
список песен
01. Иверской иконе 3:16
02. Русские князья 3:27
03. Всенощное бдение 3:21
04. Долгие ночи 4:17
05. Покров 2:30
06. Помоги России 2:44
Молите Бога о нас:
07. блаженная мати Ксение 2:36
08. преподобне отче Серафиме 2:43
09. преподобне отче Сергие 2:38

10. Перед Образом 2:23
11. Колыбельная 3:12
12. Мой сыночек, я с тобою 4:26
13. Светлое кладбище 3:05
14. Утро воскресное 5:02
отчёт EAC об извлечении
Exact Audio Copy V0.99 prebeta 4 from 23. January 2008

Отчёт EAC об извлечении, выполненном 30. мая 2009, 14:04

Галина Лупандина / Утро воскресное

Дисковод: Optiarc DVD RW AD-7203A Adapter: 1 ID: 0

Режим чтения : Достоверность
Использование точного потока : Да
Отключение кэша аудио : Да
Использование указателей C2 : Нет

Коррекция смещения при чтении : 48
Способность читать области Lead-in и Lead-out : Нет
Заполнение пропущенных сэмплов тишиной : Да
Удаление блоков с тишиной в начале и конце : Нет
При вычислениях CRC использовались нулевые сэмплы : Да
Интерфейс : Установленный внешний ASPI-интерфейс

Выходной формат : Внутренние WAV-операции
Формат сэмплов : 44.100 Гц; 16 бит; стерео

TOC извлечённого CD

Трек | Старт | Длительность | Начальный сектор | Конечный сектор
---------------------------------------------------------------------
1 | 0:00.00 | 3:16.67 | 0 | 14766
2 | 3:16.67 | 3:27.67 | 14767 | 30358
3 | 6:44.59 | 3:21.17 | 30359 | 45450
4 | 10:06.01 | 4:17.73 | 45451 | 64798
5 | 14:23.74 | 2:30.01 | 64799 | 76049
6 | 16:54.00 | 2:44.05 | 76050 | 88354
7 | 19:38.05 | 2:36.72 | 88355 | 100126
8 | 22:15.02 | 2:43.30 | 100127 | 112381
9 | 24:58.32 | 2:38.04 | 112382 | 124235
10 | 27:36.36 | 2:23.41 | 124236 | 135001
11 | 30:00.02 | 3:12.09 | 135002 | 149410
12 | 33:12.11 | 4:26.71 | 149411 | 169431
13 | 37:39.07 | 3:05.48 | 169432 | 183354
14 | 40:44.55 | 5:02.46 | 183355 | 206050

Характеристики диапазона извлечения и сообщения об ошибках

Выбранный диапазон

Имя файла F:\Galina Lupandina - Utro voskresnoe.wav

Пиковый уровень 96.5 %
Качество диапазона 100.0 %
CRC копии 5422181C
Копирование... OK

Ошибок не произошло

Конец отчёта
Download

Войдите для скачивания торрент-файла

Как скачивать  ·   Правила трекера

[Профиль]  [ЛС] 

РОСС

Стаж: 7 лет 5 месяцев

Сообщений: 62

Russia

post 27-Сен-2009 13:42 (спустя 17 часов)

[Цитировать] 

Спасибо!
[Профиль]  [ЛС] 

накотак

Стаж: 7 лет 1 месяц

Сообщений: 27

Откуда: Украина. Староконстантинов

Ukraine

post 15-Мар-2010 14:09 (спустя 5 месяцев 18 дней)

[Цитировать] 

Спасибо большое. Только начал слушать - и уже очарован! Замечательный диск! А впридачу, и участие Мити Кузнецова!
[Профиль]  [ЛС] 

story

Стаж: 6 лет 11 месяцев

Сообщений: 5

Ussr

post 06-Июн-2010 21:56 (спустя 2 месяца 22 дня)

[Цитировать] 

Спасибо, замечательно!
А есть еще что-то в таком же духе? Очень понравился стиль исполнения.
[Профиль]  [ЛС] 

сервп62

Стаж: 7 лет 9 месяцев

Сообщений: 303

post 06-Июн-2010 22:50 (спустя 54 минуты)

[Цитировать] 

Уважаемый story, послушайте
Анна Пиркова Чистая вода
Анна Пиркова Свет любви
Ольга Першина (пять альбомов)
[Профиль]  [ЛС] 

Василий К

Стаж: 6 лет 5 месяцев

Сообщений: 2

Russia

post 08-Июл-2010 17:26 (спустя 1 месяц 1 день)

[Цитировать] 

Большое спасибо!!!
[Профиль]  [ЛС] 

MAGrachev

Стаж: 7 лет 3 месяца

Сообщений: 5

Russia

post 27-Дек-2010 01:10 (спустя 5 месяцев 18 дней)

[Цитировать] 

Благодарю!
[Профиль]  [ЛС] 

CEPBEP4

Стаж: 5 лет 9 месяцев

Сообщений: 132

Откуда: ОРЕНБУРГ

Russia

post 23-Июн-2011 13:12 (спустя 5 месяцев 27 дней)

[Цитировать] 

Arrow Спаси Господи, очень понравилось! Smile

_________________
pic
pic 100 Мбит/с pic 100 Мбит/с pic
[Профиль]  [ЛС] 

DJKuhar

post 16-Июл-2011 00:02 (спустя 22 дня)

[Цитировать] 

Спасибо!Вы делаете нашу жизнь чище...спокойнее..
 

vit551040

Стаж: 5 лет 3 месяца

Сообщений: 9

Откуда: Орел

Russia

post 04-Сен-2011 22:56 (спустя 1 месяц 19 дней)

[Цитировать] 

Спаси Бог!

_________________
Бог терпел и нам велел...
[Профиль]  [ЛС] 

afara

Стаж: 6 лет 2 месяца

Сообщений: 194

Moldova

post 11-Фев-2012 23:35 (спустя 5 месяцев 7 дней)

[Цитировать] 

Спаси и сохрани

_________________
Господи, Ты - моё сокровище, Ты - моё счастье...
Ты - мой покой, Ты - моя жизнь вечная !
Передаю себя в волю твою.
Сам со мной живи, и Сам говори !

Отдай себя, и Он будет жить с тобою...и говорить будет с тобою...
[Профиль]  [ЛС] 

иван иоанн

Стаж: 4 года 11 месяцев

Сообщений: 41

Откуда: тюмень

Russia

post 13-Фев-2012 18:20 (спустя 1 день 18 часов)

[Цитировать] 

спаси господи вас!
[Профиль]  [ЛС] 

иван иоанн

Стаж: 4 года 11 месяцев

Сообщений: 41

Откуда: тюмень

Russia

post 16-Фев-2012 16:30 (спустя 2 дня 22 часа)

[Цитировать] 

отличные песни .спаси вас господь!
[Профиль]  [ЛС] 

иван иоанн

Стаж: 4 года 11 месяцев

Сообщений: 41

Откуда: тюмень

Russia

post 16-Фев-2012 16:32 (спустя 2 минуты)

[Цитировать] 

спаси господи вас !
[Профиль]  [ЛС] 

любовь333

Стаж: 6 лет 8 месяцев

Сообщений: 44

Russia

post 24-Фев-2012 14:54 (спустя 7 дней)

[Цитировать] 

Спаси Господи, по - моему, очень талантливо! Хочется слушать и петь вместе.
[Профиль]  [ЛС] 
Показать сообщения:    
Ответить на тему

Текущее время: 03-Дек 19:40

Часовой пояс: GMT + 4



Вы не можете начинать темы
Вы не можете отвечать на сообщения
Вы не можете редактировать свои сообщения
Вы не можете удалять свои сообщения
Вы не можете голосовать в опросах
Вы не можете прикреплять файлы к сообщениям
Вы не можете скачивать файлы