Loading...
Error

(Классическая музыка) Дмитриев Георгий. "Преподобный Савва игумен"; "Священные знаки"; Шесть хоров на стихи русских поэтов. - 2004, FLAC (tracks), lossless

Ответить на тему
Статистика раздачи
Скачали: [ 1 ]
   
 
Автор Сообщение

СЕРГУЛЕТ

Стаж: 8 лет

Сообщений: 2639

Откуда: LA ROMANA

Dominicanrep

post 06-Июл-2011 15:40

[Цитировать] 

Дмитриев Георгий. "Преподобный Савва игумен"; "Священные знаки"; Шесть хоров на стихи русских поэтов.

pic
Страна: Россия
Жанр: Классическая музыка
Год выпуска: 2004
Формат: FLAC (tracks)
Битрейт аудио: lossless
Продолжительность: 01:10:15
Трэклист:
01. Преподобный Савва игумен. I На тихих берегах Москвы... (2:23)
02. Преподобный отец наш Савва... (0:56)
03. II На молитве (3:52)
04. Тогда, по наставлению учителя своего, великого Сергия... (1:37)
05. III Пастырь (3:58)
06. Потом некий Христолюбивый князь... (1:18)
07. IV Строительство храма (3:10)
08. В поздней старости впал он... (1:29)
09. V Успение (2:22)
10. Услышав о представлении Святого... (0:55)
11. VI Чудотворец (2:42)
12. Честные его мощи и до нынешнего дня... (0:50)
13. VII Пение всеумиленное... (2:47)
14. VIII На тихих берегах Москвы... (2:28)
15. Священные знаки. I Священные знаки (5:51)
16. II Вспомнится (Утром) (3:53)
17. III Привратник (2:01)
18. IV В танце (4:59)
19. V Капли (2:34)
20. VI Веселися (5:40)
21. Шесть хоров на стихи русских поэтов. I Есть наслаждение и в дикости лесов... (2:30)
22. II Молитва (2:04)
23. III Благовест (2:11)
24. IV Святый Боже (2:41)
25. V Не надо звуков (2:34)
26. VI На Пасху (2:05)
Дополнительная информация: Чтец - диакон Николай Пянзин (2,4,6,8,10,12,14)
Мужской и Большой смешанный хоры Российской академии хорового искусства.
Солисты: А. Немзер - тенор (3,5,11,18,19,20,21,26), И. Леонов - тенор (3,19),
И. Сафонов - баритон (5), И. Барыкин - бас (3,5), М. Зятькова - сопрано (16,19),
Е. Хорошенина - сопрано (19), С. Сергеева - меццо-сопрано (16,19),
С. Лухманова - меццо-сопрано (19), И. Албанов - баритон (19), Л. Овруцкий - баритон (19).
Дирижер - профессор Виктор Попов.
Запись 2003 года.
EAC log
Exact Audio Copy V0.99 prebeta 5 from 4. May 2009

EAC extraction logfile from 4. March 2010, 18:14

Дмитриев Г.П. / Преподобный Савва игумен

Used drive : PIONEER DVD-RW DVR-212 Adapter: 5 ID: 0

Read mode : Secure
Utilize accurate stream : Yes
Defeat audio cache : Yes
Make use of C2 pointers : No

Read offset correction : 48
Overread into Lead-In and Lead-Out : No
Fill up missing offset samples with silence : Yes
Delete leading and trailing silent blocks : No
Null samples used in CRC calculations : Yes
Used interface : Native Win32 interface for Win NT & 2000
Gap handling : Appended to previous track

Used output format : User Defined Encoder
Selected bitrate : 128 kBit/s
Quality : High
Add ID3 tag : No
Command line compressor : C:\Program Files\FLAC\flac.exe
Additional command line options : -8 -V -T "ARTIST=%a" -T "TITLE=%t" -T "ALBUM=%g" -T "DATE=%y" -T "TRACKNUMBER=%n" -T "GENRE=%m" -T "COMMENT=EAC FLAC -8" %s

TOC of the extracted CD

Track | Start | Length | Start sector | End sector
---------------------------------------------------------
1 | 0:00.00 | 2:23.73 | 0 | 10797
2 | 2:23.73 | 0:56.32 | 10798 | 15029
3 | 3:20.30 | 3:52.45 | 15030 | 32474
4 | 7:13.00 | 1:37.73 | 32475 | 39822
5 | 8:50.73 | 3:58.73 | 39823 | 57745
6 | 12:49.71 | 1:19.03 | 57746 | 63673
7 | 14:08.74 | 3:11.02 | 63674 | 78000
8 | 17:20.01 | 1:30.01 | 78001 | 84751
9 | 18:50.02 | 2:22.30 | 84752 | 95431
10 | 21:12.32 | 0:55.39 | 95432 | 99595
11 | 22:07.71 | 2:42.53 | 99596 | 111798
12 | 24:50.49 | 0:51.08 | 111799 | 115631
13 | 25:41.57 | 2:48.02 | 115632 | 128233
14 | 28:29.59 | 2:31.33 | 128234 | 139591
15 | 31:01.17 | 5:51.57 | 139592 | 165973
16 | 36:52.74 | 3:53.54 | 165974 | 183502
17 | 40:46.53 | 2:01.45 | 183503 | 192622
18 | 42:48.23 | 5:00.07 | 192623 | 215129
19 | 47:48.30 | 2:35.08 | 215130 | 226762
20 | 50:23.38 | 5:42.40 | 226763 | 252452
21 | 56:06.03 | 2:30.55 | 252453 | 263757
22 | 58:36.58 | 2:04.12 | 263758 | 273069
23 | 60:40.70 | 2:11.10 | 273070 | 282904
24 | 62:52.05 | 2:41.57 | 282905 | 295036
25 | 65:33.62 | 2:34.20 | 295037 | 306606
26 | 68:08.07 | 2:05.61 | 306607 | 316042

Track 1

Filename D:\Dmitriev\FLAC\2004 - Преподобный Савва игумен\01. Дмитриев Г.П. – Преподобный Савва игумен. I На тихих берегах Москвы....wav

Pre-gap length 0:00:02.00

Peak level 62.2 %
Track quality 100.0 %
Test CRC B5469F7C
Copy CRC B5469F7C
Copy OK

Track 2

Filename D:\Dmitriev\FLAC\2004 - Преподобный Савва игумен\02. Дмитриев Г.П. – Преподобный Савва игумен. Преподобный отец наш Савва....wav

Peak level 30.6 %
Track quality 99.8 %
Test CRC ADB1FA00
Copy CRC ADB1FA00
Copy OK

Track 3

Filename D:\Dmitriev\FLAC\2004 - Преподобный Савва игумен\03. Дмитриев Г.П. – Преподобный Савва игумен. II На молитве.wav

Peak level 87.3 %
Track quality 100.0 %
Test CRC 289D4908
Copy CRC 289D4908
Copy OK

Track 4

Filename D:\Dmitriev\FLAC\2004 - Преподобный Савва игумен\04. Дмитриев Г.П. – Преподобный Савва игумен. Тогда, по наставлению учителя своего, великого Сергия....wav

Peak level 30.8 %
Track quality 99.8 %
Test CRC 4B9B08B5
Copy CRC 4B9B08B5
Copy OK

Track 5

Filename D:\Dmitriev\FLAC\2004 - Преподобный Савва игумен\05. Дмитриев Г.П. – Преподобный Савва игумен. III Пастырь.wav

Peak level 86.4 %
Track quality 100.0 %
Test CRC B4E37C1F
Copy CRC B4E37C1F
Copy OK

Track 6

Filename D:\Dmitriev\FLAC\2004 - Преподобный Савва игумен\06. Дмитриев Г.П. – Преподобный Савва игумен. Потом некий Христолюбивый князь....wav

Peak level 41.6 %
Track quality 99.8 %
Test CRC BE988BB6
Copy CRC BE988BB6
Copy OK

Track 7

Filename D:\Dmitriev\FLAC\2004 - Преподобный Савва игумен\07. Дмитриев Г.П. – Преподобный Савва игумен. IV Строительство храма.wav

Peak level 63.4 %
Track quality 100.0 %
Test CRC F410FB35
Copy CRC F410FB35
Copy OK

Track 8

Filename D:\Dmitriev\FLAC\2004 - Преподобный Савва игумен\08. Дмитриев Г.П. – Преподобный Савва игумен. В поздней старости впал он....wav

Peak level 30.1 %
Track quality 99.8 %
Test CRC 210C031A
Copy CRC 210C031A
Copy OK

Track 9

Filename D:\Dmitriev\FLAC\2004 - Преподобный Савва игумен\09. Дмитриев Г.П. – Преподобный Савва игумен. V Успение.wav

Peak level 80.1 %
Track quality 100.0 %
Test CRC 55F98C4E
Copy CRC 55F98C4E
Copy OK

Track 10

Filename D:\Dmitriev\FLAC\2004 - Преподобный Савва игумен\10. Дмитриев Г.П. – Преподобный Савва игумен. Услышав о представлении Святого....wav

Peak level 30.5 %
Track quality 100.0 %
Test CRC 3D0834CA
Copy CRC 3D0834CA
Copy OK

Track 11

Filename D:\Dmitriev\FLAC\2004 - Преподобный Савва игумен\11. Дмитриев Г.П. – Преподобный Савва игумен. VI Чудотворец.wav

Peak level 81.6 %
Track quality 99.9 %
Test CRC 4FB4F578
Copy CRC 4FB4F578
Copy OK

Track 12

Filename D:\Dmitriev\FLAC\2004 - Преподобный Савва игумен\12. Дмитриев Г.П. – Преподобный Савва игумен. Честные его мощи и до нынешнего дня....wav

Peak level 33.7 %
Track quality 99.7 %
Test CRC EBD581FD
Copy CRC EBD581FD
Copy OK

Track 13

Filename D:\Dmitriev\FLAC\2004 - Преподобный Савва игумен\13. Дмитриев Г.П. – Преподобный Савва игумен. VII Пение всеумиленное....wav

Peak level 84.9 %
Track quality 99.9 %
Test CRC A4AF883E
Copy CRC A4AF883E
Copy OK

Track 14

Filename D:\Dmitriev\FLAC\2004 - Преподобный Савва игумен\14. Дмитриев Г.П. – Преподобный Савва игумен. VIII На тихих берегах Москвы....wav

Peak level 73.6 %
Track quality 99.9 %
Test CRC 1D91C721
Copy CRC 1D91C721
Copy OK

Track 15

Filename D:\Dmitriev\FLAC\2004 - Преподобный Савва игумен\15. Дмитриев Г.П. – Священные знаки. I Священные знаки.wav

Peak level 76.6 %
Track quality 100.0 %
Test CRC 3644E66D
Copy CRC 3644E66D
Copy OK

Track 16

Filename D:\Dmitriev\FLAC\2004 - Преподобный Савва игумен\16. Дмитриев Г.П. – Священные знаки. II Вспомнится (Утром).wav

Peak level 82.1 %
Track quality 100.0 %
Test CRC 5A08B917
Copy CRC 5A08B917
Copy OK

Track 17

Filename D:\Dmitriev\FLAC\2004 - Преподобный Савва игумен\17. Дмитриев Г.П. – Священные знаки. III Привратник.wav

Peak level 49.4 %
Track quality 100.0 %
Test CRC 33974479
Copy CRC 33974479
Copy OK

Track 18

Filename D:\Dmitriev\FLAC\2004 - Преподобный Савва игумен\18. Дмитриев Г.П. – Священные знаки. IV В танце.wav

Peak level 87.3 %
Track quality 100.0 %
Test CRC F81C7429
Copy CRC F81C7429
Copy OK

Track 19

Filename D:\Dmitriev\FLAC\2004 - Преподобный Савва игумен\19. Дмитриев Г.П. – Священные знаки. V Капли.wav

Peak level 29.0 %
Track quality 100.0 %
Test CRC 51BD6957
Copy CRC 51BD6957
Copy OK

Track 20

Filename D:\Dmitriev\FLAC\2004 - Преподобный Савва игумен\20. Дмитриев Г.П. – Священные знаки. VI Веселися.wav

Peak level 86.9 %
Track quality 100.0 %
Test CRC 7D5201B0
Copy CRC 7D5201B0
Copy OK

Track 21

Filename D:\Dmitriev\FLAC\2004 - Преподобный Савва игумен\21. Дмитриев Г.П. – Шесть хоров на стихи русских поэтов. I Есть наслаждение и в дикости лесов....wav

Peak level 96.3 %
Track quality 99.9 %
Test CRC 429DFC28
Copy CRC 429DFC28
Copy OK

Track 22

Filename D:\Dmitriev\FLAC\2004 - Преподобный Савва игумен\22. Дмитриев Г.П. – Шесть хоров на стихи русских поэтов. II Молитва.wav

Peak level 74.8 %
Track quality 100.0 %
Test CRC 32973090
Copy CRC 32973090
Copy OK

Track 23

Filename D:\Dmitriev\FLAC\2004 - Преподобный Савва игумен\23. Дмитриев Г.П. – Шесть хоров на стихи русских поэтов. III Благовест.wav

Peak level 36.9 %
Track quality 100.0 %
Test CRC 6D7B5B4C
Copy CRC 6D7B5B4C
Copy OK

Track 24

Filename D:\Dmitriev\FLAC\2004 - Преподобный Савва игумен\24. Дмитриев Г.П. – Шесть хоров на стихи русских поэтов. IV Святый Боже.wav

Peak level 77.7 %
Track quality 100.0 %
Test CRC 98CFF959
Copy CRC 98CFF959
Copy OK

Track 25

Filename D:\Dmitriev\FLAC\2004 - Преподобный Савва игумен\25. Дмитриев Г.П. – Шесть хоров на стихи русских поэтов. V Не надо звуков.wav

Peak level 34.9 %
Track quality 100.0 %
Test CRC FBB885D7
Copy CRC FBB885D7
Copy OK

Track 26

Filename D:\Dmitriev\FLAC\2004 - Преподобный Савва игумен\26. Дмитриев Г.П. – Шесть хоров на стихи русских поэтов. VI На Пасху.wav

Peak level 70.4 %
Track quality 100.0 %
Test CRC FAB711A7
Copy CRC FAB711A7
Copy OK

No errors occurred

End of status report
Download

Войдите для скачивания торрент-файла

Как скачивать  ·   Правила трекера

[Профиль]  [ЛС] 

любафильм

Стаж: 6 лет 2 месяца

Сообщений: 2

Russia

post 08-Авг-2011 22:42 (спустя 1 месяц 2 дня)

[Цитировать] 

Благодарю.
[Профиль]  [ЛС] 

SvetlanaSV

Стаж: 2 года 5 месяцев

Сообщений: 74

post 06-Сен-2014 13:53 (спустя 3 года)

[Цитировать] 

Спасибо!
[Профиль]  [ЛС] 

Татьяна-Tatyana

Стаж: 3 года 5 месяцев

Сообщений: 2

Russia

post 13-Ноя-2015 01:28 (спустя 1 год 2 месяца)

[Цитировать] 

Спаси Господи за труды Ваши!
[Профиль]  [ЛС] 
Показать сообщения:    
Ответить на тему

Текущее время: 19-Фев 18:21

Часовой пояс: GMT + 4



Вы не можете начинать темы
Вы не можете отвечать на сообщения
Вы не можете редактировать свои сообщения
Вы не можете удалять свои сообщения
Вы не можете голосовать в опросах
Вы не можете прикреплять файлы к сообщениям
Вы не можете скачивать файлы