Loading...
Error

(Духовные песни) Протоиерей Олег Скобля. "Крест кованый", "Ангел молитвы", "Крылатый лев", FLAC (image + .cue), lossless

Страницы:  1, 2  След.

Ответить на тему
Статистика раздачи
Качают: [ 1 ]
Скачали: [ 6 ]
   
 
Автор Сообщение

сервп62

Стаж: 7 лет 10 месяцев

Сообщений: 303

post 18-Мар-2009 19:27

[Цитировать] 

Протоиерей Олег Скобля. Три аудиодиска lossless
pic
Страна: Россия
Жанр: Духовные песни
Годы выпуска: 1995-Крест кованый; 2001-Ангел молитвы; 2004-Крылатый лев
Формат:: FLAC (image + .cue)
Битрейт аудио: lossless
Дополнительно: в соответствующих папках приложены сканы обложек и диска в разрешении 300 dpi
список песен
01. Седая Осень 4:58
02. Крещенский снег 4:51
03. Под покровом синей мантии 4:20
04. Темнеет крест кованный 6:20
05. По иконе катится слеза 7:20
06. Каторжники 8:09
07. Крестный ход 5:10
08. Туман 3:59
09. Кончина 4:34
10. Пассия 5:53
отчёт EAC об извлечении
Exact Audio Copy V0.99 prebeta 4 from 23. January 2008

Отчёт EAC об извлечении, выполненном 16. марта 2009, 9:48

Unknown Artist / Unknown Title

Дисковод: Optiarc DVD RW AD-7530A Adapter: 0 ID: 1

Режим чтения : Достоверность
Использование точного потока : Да
Отключение кэша аудио : Да
Использование указателей C2 : Нет

Комбинированное смещение чтения/записи : 0
Способность читать области Lead-in и Lead-out : Нет
Заполнение пропущенных сэмплов тишиной : Да
Удаление блоков с тишиной в начале и конце : Нет
При вычислениях CRC использовались нулевые сэмплы : Да
Интерфейс : Установленный внешний ASPI-интерфейс

Выходной формат : Внутренние WAV-операции
Формат сэмплов : 44.100 Гц; 16 бит; стерео

TOC извлечённого CD

Трек | Старт | Длительность | Начальный сектор | Конечный сектор
---------------------------------------------------------------------
1 | 0:00.00 | 4:55.07 | 0 | 22131
2 | 4:55.07 | 4:48.32 | 22132 | 43763
3 | 9:43.39 | 4:18.01 | 43764 | 63114
4 | 14:01.40 | 6:27.66 | 63115 | 92205
5 | 20:29.31 | 7:27.56 | 92206 | 125786
6 | 27:57.12 | 8:15.28 | 125787 | 162939
7 | 36:12.40 | 5:17.04 | 162940 | 186718
8 | 41:29.44 | 3:58.03 | 186719 | 204571
9 | 45:27.47 | 4:40.44 | 204572 | 225615
10 | 50:08.16 | 5:47.02 | 225616 | 251642

Характеристики диапазона извлечения и сообщения об ошибках

Выбранный диапазон

Имя файла D:\Три аудиодиска lossless протоиерея Олега Скобли\Крест кованый\Крест кованый.wav

Пиковый уровень 99.9 %
Качество диапазона 99.8 %
CRC копии A497192A
Копирование... OK

Ошибок не произошло

Конец отчёта
pic
список песен
01. Одинокий крик Посвящается Н. С 6:05
02. Звонят колокола 6:44
03. Ангел хранитель 5:22
04. В эту лютую ночь 4:45
05. Крестный ход 5:15
06. Каторжники 8:13
07. Кончина 4:38
08. Темнеет крест кованый 6:25
09. По Иконе катится слеза 7:25
10. Лаврские колокола Посвящается митрополиту Иоанну 6:19
11. Ангел молитвы 6:09
12. Пономарь 5:01
отчёт EAC об извлечении
Exact Audio Copy V0.99 prebeta 4 from 23. January 2008

Отчёт EAC об извлечении, выполненном 16. марта 2009, 19:04

Unknown Artist / Unknown Title

Дисковод: Optiarc DVD RW AD-7530A Adapter: 0 ID: 1

Режим чтения : Достоверность
Использование точного потока : Да
Отключение кэша аудио : Да
Использование указателей C2 : Нет

Комбинированное смещение чтения/записи : 0
Способность читать области Lead-in и Lead-out : Нет
Заполнение пропущенных сэмплов тишиной : Да
Удаление блоков с тишиной в начале и конце : Нет
При вычислениях CRC использовались нулевые сэмплы : Да
Интерфейс : Установленный внешний ASPI-интерфейс

Выходной формат : Внутренние WAV-операции
Формат сэмплов : 44.100 Гц; 16 бит; стерео

TOC извлечённого CD

Трек | Старт | Длительность | Начальный сектор | Конечный сектор
---------------------------------------------------------------------
1 | 0:00.00 | 6:04.67 | 0 | 27366
2 | 6:04.67 | 6:44.15 | 27367 | 57681
3 | 12:49.07 | 5:22.18 | 57682 | 81849
4 | 18:11.25 | 4:45.45 | 81850 | 103269
5 | 22:56.70 | 5:15.00 | 103270 | 126894
6 | 28:11.70 | 8:13.25 | 126895 | 163894
7 | 36:25.20 | 4:38.40 | 163895 | 184784
8 | 41:03.60 | 6:25.62 | 184785 | 213721
9 | 47:29.47 | 7:25.53 | 213722 | 247149
10 | 54:55.25 | 6:19.37 | 247150 | 275611
11 | 61:14.62 | 6:09.58 | 275612 | 303344
12 | 67:24.45 | 5:02.52 | 303345 | 326046

Характеристики диапазона извлечения и сообщения об ошибках

Выбранный диапазон

Имя файла D:\Три аудиодиска lossless протоиерея Олега Скобли\Ангел молитвы\Ангел молитвы.wav

Пиковый уровень 98.8 %
Качество диапазона 99.8 %
CRC теста 641D25C4
CRC копии 641D25C4
Копирование... OK

Ошибок не произошло

Конец отчёта
pic
список песен
01. Поиграй в любовь 5:30
02. Музыкант 4:57
03. Реквием 5:38
04. Содом 5:28
05. Роса слезою упадет... 6:05
06. Господи, тебе пою... 5:12
07. На кресты легла... 5:26
08. Голгофа 5:18
09. Афон 5:45
10. Армагеддон 5:51
11. Ангел 5:04
12. Ангел Питера 5:36
отчёт EAC об извлечении
Exact Audio Copy V0.99 prebeta 4 from 23. January 2008

Отчёт EAC об извлечении, выполненном 16. марта 2009, 1:31

Unknown Artist / Unknown Title

Дисковод: Optiarc DVD RW AD-7530A Adapter: 0 ID: 1

Режим чтения : Достоверность
Использование точного потока : Да
Отключение кэша аудио : Да
Использование указателей C2 : Нет

Комбинированное смещение чтения/записи : 0
Способность читать области Lead-in и Lead-out : Нет
Заполнение пропущенных сэмплов тишиной : Да
Удаление блоков с тишиной в начале и конце : Нет
При вычислениях CRC использовались нулевые сэмплы : Да
Интерфейс : Установленный внешний ASPI-интерфейс

Выходной формат : Внутренние WAV-операции
Формат сэмплов : 44.100 Гц; 16 бит; стерео

TOC извлечённого CD

Трек | Старт | Длительность | Начальный сектор | Конечный сектор
---------------------------------------------------------------------
1 | 0:00.00 | 5:30.18 | 0 | 24767
2 | 5:30.18 | 4:57.52 | 24768 | 47094
3 | 10:27.70 | 5:38.08 | 47095 | 72452
4 | 16:06.03 | 5:28.17 | 72453 | 97069
5 | 21:34.20 | 6:05.50 | 97070 | 124494
6 | 27:39.70 | 5:12.12 | 124495 | 147906
7 | 32:52.07 | 5:26.15 | 147907 | 172371
8 | 38:18.22 | 5:18.44 | 172372 | 196265
9 | 43:36.66 | 5:45.41 | 196266 | 222181
10 | 49:22.32 | 5:51.17 | 222182 | 248523
11 | 55:13.49 | 5:04.41 | 248524 | 271364
12 | 60:18.15 | 5:36.42 | 271365 | 296606

Характеристики диапазона извлечения и сообщения об ошибках

Выбранный диапазон

Имя файла D:\Три аудиодиска lossless протоиерея Олега Скобли\Крылатый лев\крылатый лев.wav

Пиковый уровень 98.8 %
Качество диапазона 99.8 %
CRC копии A6CC7B49
Копирование... OK

Ошибок не произошло

Конец отчёта
Download

Войдите для скачивания торрент-файла

Как скачивать  ·   Правила трекера



Последний раз редактировалось: сервп62 (2009-04-27 17:38), всего редактировалось 2 раз(а)
[Профиль]  [ЛС] 

Academic Crack

Администратор

Стаж: 8 лет

Сообщений: 2078

Russia

post 18-Мар-2009 21:01 (спустя 1 час 33 минуты)

[Цитировать] 

Да, такое надо забирать. Сейчас его альбомы, особенно старые, сложно где-то отыскать, в продаже я уже не видел, хотя, может, где-то и есть - специально поиском не занимался. Поэтому спасибо за раздачу. Поддержу, как скачается.

_________________
pic
pic 100 Мбит/с, pic 100 Мбит/с.
Исправили раздачу? Пишите в личку со ссылкой на раздачу.
[Профиль]  [ЛС] 

rostik

Стаж: 7 лет 8 месяцев

Сообщений: 42

Откуда: Днепропетровск

Ukraine

post 19-Мар-2009 12:15 (спустя 15 часов)

[Цитировать] 

Спасибо большое за качество!!!!!
Песни о.Олега очень ценны для меня, как и для всех православных христиан.
[Профиль]  [ЛС] 

raychen

Стаж: 8 лет

Сообщений: 36

post 20-Мар-2009 00:54 (спустя 12 часов)

[Цитировать] 

Осталось добавить новый. Ждём.
[Профиль]  [ЛС] 

KishMan

Стаж: 7 лет 9 месяцев

Сообщений: 15

post 07-Апр-2009 01:26 (спустя 19 дней)

[Цитировать] 

Новый уже раздан на трекере.
[Профиль]  [ЛС] 

KishMan

Стаж: 7 лет 9 месяцев

Сообщений: 15

post 10-Апр-2009 02:05 (спустя 3 дня)

[Цитировать] 

Очень прошу автора залить в каждый альбом помиму флак файла ещё и оригенальный Wave. Скажем вот .cue альбома крест кованный:
скрытый текст
REM DISCID 890D1B0A
REM COMMENT "ExactAudioCopy v0.99pb4"
PERFORMER "Unknown Artist"
TITLE "Unknown Title"
FILE "Крест кованый.wav" WAVE
TRACK 01 AUDIO
TITLE "Track01"
PERFORMER "Unknown Artist"
INDEX 01 00:00:00
TRACK 02 AUDIO
TITLE "Track02"
PERFORMER "Unknown Artist"
INDEX 01 04:55:07
TRACK 03 AUDIO
TITLE "Track03"
PERFORMER "Unknown Artist"
INDEX 01 09:43:39
TRACK 04 AUDIO
TITLE "Track04"
PERFORMER "Unknown Artist"
INDEX 01 14:01:40
TRACK 05 AUDIO
TITLE "Track05"
PERFORMER "Unknown Artist"
INDEX 01 20:29:31
TRACK 06 AUDIO
TITLE "Track06"
PERFORMER "Unknown Artist"
INDEX 01 27:57:12
TRACK 07 AUDIO
TITLE "Track07"
PERFORMER "Unknown Artist"
INDEX 01 36:12:40
TRACK 08 AUDIO
TITLE "Track08"
PERFORMER "Unknown Artist"
INDEX 01 41:29:44
TRACK 09 AUDIO
TITLE "Track09"
PERFORMER "Unknown Artist"
INDEX 01 45:27:47
TRACK 10 AUDIO
TITLE "Track10"
PERFORMER "Unknown Artist"
INDEX 01 50:08:16
Как видно нужен файл Крест кованый.wav. Для того чтобы сделать MP3 с разбиением на треки мне пришлось флак перекидировать в .wave, а только потом ещё раз пережимать.
[Профиль]  [ЛС] 

Academic Crack

Администратор

Стаж: 8 лет

Сообщений: 2078

Russia

post 10-Апр-2009 02:18 (спустя 13 минут)

[Цитировать] 

KishMan, WAV-файлы никуда заливать не нужно. Для чего они Вам нужны? Скачайте FLAC, если у Вас его нет, после чего разожмите в WAV. После этого Вы и получите оригинальный WAV-файл, а потом можно смонтировать cue-файл на любой эмулятор оптических дисков и рипнуть в mp3, либо же разделить на треки с помощью CUETools и пережать полученные WAV-файлы, разделенные потреково в mp3. Чтобы Вам было понятнее, формат FLAC - это тот же самый архиватор, подобно ZIP, RAR, 7-ZIP, но только оптимизированный для звука. Как распаковывая 10-КБ-ный RAR-архив Вы получаете в полном сохранении данных исходный 300 КБ-ный Word-файл (относится к формату doc, а не docx, поскольку последний уже изначально архивированный в ZIP), так и при распаковке FLAC Вы получаете 1 в 1 оригинальный WAV-файл. Раздача несжатых WAV-файлов недопустима, поскольку он сжимается в тот же FLAC или APE без потерь в 1,5-3 раза. А заставлять людей с хилым каналом качать несжатые образы, которые хорошо сжимаются, недопустимо. Посмотрите также сюда, возможно, это Вам поможет. И не забывайте, что FLAC или APE - это и есть WAV. Только заархивированный.

_________________
pic
pic 100 Мбит/с, pic 100 Мбит/с.
Исправили раздачу? Пишите в личку со ссылкой на раздачу.
[Профиль]  [ЛС] 

KishMan

Стаж: 7 лет 9 месяцев

Сообщений: 15

post 10-Апр-2009 08:13 (спустя 5 часов)

[Цитировать] 

я так и делал, просто сомнения были что в Wave качество сохранилось. Он не разархивирует, а пережимает.
[Профиль]  [ЛС] 

сервп62

Стаж: 7 лет 10 месяцев

Сообщений: 303

post 10-Апр-2009 11:29 (спустя 3 часа)

[Цитировать] 

Уважаемый KishMan, Ваши сомнения небезосновательны по альбому "Крест кованый", в исходных фонограммах дорожек диска завал спектра на ВЧ начинается в районе 16-18 килогерц. Все три диска фабричной штамповки, поэтому сканы Tau Analyzer я не выкладывал, хотя половина дорожек альбома "Крест кованый" не была признана CDDA.
[Профиль]  [ЛС] 

Academic Crack

Администратор

Стаж: 8 лет

Сообщений: 2078

Russia

post 10-Апр-2009 13:34 (спустя 2 часа 5 минут)

[Цитировать] 

KishMan писал(а):

я так и делал, просто сомнения были что в Wave качество сохранилось. Он не разархивирует, а пережимает.
FLAC - это формат сжатия без потерь качества. Какой оригинал был изначально, такой и будет при декодировании.

_________________
pic
pic 100 Мбит/с, pic 100 Мбит/с.
Исправили раздачу? Пишите в личку со ссылкой на раздачу.
[Профиль]  [ЛС] 

Academic Crack

Администратор

Стаж: 8 лет

Сообщений: 2078

Russia

post 10-Апр-2009 13:42 (спустя 7 минут)

[Цитировать] 

сервп62 писал(а):

Уважаемый KishMan, Ваши сомнения небезосновательны по альбому "Крест кованый", в исходных фонограммах дорожек диска завал спектра на ВЧ начинается в районе 16-18 килогерц. Все три диска фабричной штамповки, поэтому сканы Tau Analyzer я не выкладывал, хотя половина дорожек альбома "Крест кованый" не была признана CDDA.
Ага. Бывает такое. У меня Tau Analyzer тоже ругался на колокольных звонах, что это апконверт, поскольку там тоже завал частот на некоторых треках начинается в этом же районе. В принципе, результаты анализа Tau Analyzer - это не столько показатель оригинальности/неоригинальности диска, хотя и используется, как правило, для этих целей, сколько показатель качества исходного звука. От оборудования, которое применяется при звукозаписи тоже много зависит.

_________________
pic
pic 100 Мбит/с, pic 100 Мбит/с.
Исправили раздачу? Пишите в личку со ссылкой на раздачу.
[Профиль]  [ЛС] 

PVC

Стаж: 7 лет 9 месяцев

Сообщений: 4

Russia

post 16-Июн-2009 18:15 (спустя 2 месяца 6 дней)

[Цитировать] 

Упс. Вот это здОрово. Наконец-то. Низкий поклон за материал. Если кому хлопотно искать дополнительные программы для конвертации и нарезки на треки, воспользуйтесь программой AIMP 2. И прослушивать через этот проигрыватель одно удовольствие.
[Профиль]  [ЛС] 

Илья

Стаж: 8 лет

Сообщений: 255

Откуда: Санкт-Петербург

Russia

post 07-Авг-2009 02:14 (спустя 1 месяц 20 дней)

[Цитировать] 

сервп62, спасибо.

_________________
величайшая трагедия жизни состоит не в том, что люди гибнут, а в том, что они перестают любить
добрая слабость простительнее ревности не по разуму
ценность слова не в качестве его оцифровки
[Профиль]  [ЛС] 

rbivan

Стаж: 7 лет 4 месяца

Сообщений: 2

Откуда: Набережные Челны

post 14-Авг-2009 08:56 (спустя 7 дней)

[Цитировать] 

встанте на раздачу! очень надо!
[Профиль]  [ЛС] 

Semuel

post 21-Авг-2009 18:20 (спустя 7 дней)

[Цитировать] 

Где раздача-то? Пожалуйста, кто-нибудь....
 
Показать сообщения:    
Ответить на тему

Текущее время: 10-Дек 10:50

Часовой пояс: GMT + 4



Вы не можете начинать темы
Вы не можете отвечать на сообщения
Вы не можете редактировать свои сообщения
Вы не можете удалять свои сообщения
Вы не можете голосовать в опросах
Вы не можете прикреплять файлы к сообщениям
Вы не можете скачивать файлы