Loading...
Error

(Песни авторов и исполнителей (lossless).) Ирина Воропаева. "Думы мои, думы..." - 2007, APE (image + .cue), lossless

Ответить на тему
Статистика раздачи
Скачали: [ 2 ]
   
 
Автор Сообщение

СЕРГУЛЕТ

Стаж: 7 лет 9 месяцев

Сообщений: 2639

Откуда: LA ROMANA

Dominicanrep

post 22-Дек-2009 00:22

[Цитировать] 

Ирина Воропаева. "Думы мои, думы..."

pic
Страна: Россия.
Жанр: Песни авторов и исполнителей (lossless).
Год выпуска: 2007
Формат: APE (image + .cue)
Битрейт аудио: lossless
Продолжительность: 00:33:37
Треклист:
1) «Золота свет...» (сл. иер. Анатолий (Хациев) 2.23
2) «Приходили пророки...»(сл. иер. Анатолий (Хациев) 1.43
3) «Тишина» (сл. иер. Анатолий (Xai щев) 1.37
4) Бесконечной вереницей...»(сл.схиигум. Савва (Остапенко) 2.03
5) «Стрела» (р.н.п. Брянской области) 3.08
6) «Ангел» (сл. Д. Соколов) 2.36
7) «Тихая келья» (сл. схиигум. Савва (Остапенко) 2.18
8 ) «Думы мои, думы» (сл. архид. Роман (Тамберг) 1.58
9) «Осень» (сл. архид. Роман (Тамберг) 4.34
10) «Крестный путь» (сл. схиигум. Савва (Остапенко) 2.20
11) «Терпи...» (сл. схиигум. Савва (Остапенко) 1.24
12) «Колыбельная» (грузинская народная песня) 2.36
13) «Песня» (сл. Д. Соколов) 2.54
14) «Благодарю...»(сл. схиигум. Савва (Остапенко) 1.5
Обложки+Содержание
picpicpic
EAC log
Exact Audio Copy V0.99 prebeta 5 from 4. May 2009

Отчёт EAC об извлечении, выполненном 21. декабря 2009, 19:16

Ирина Воропаева / Думы мои, думы

Дисковод: ASUS BC-1205PT Adapter: 1 ID: 0

Режим чтения : Достоверность
Использование точного потока : Да
Отключение кэша аудио : Да
Использование указателей C2 : Нет

Коррекция смещения при чтении : 667
Способность читать области Lead-in и Lead-out : Нет
Заполнение пропущенных сэмплов тишиной : Да
Удаление блоков с тишиной в начале и конце : Нет
При вычислениях CRC использовались нулевые сэмплы : Да
Интерфейс : Встроенный Win32-интерфейс для Win NT/2000

Выходной формат : Внутренние WAV-операции
Формат сэмплов : 44.100 Гц; 16 бит; стерео

TOC извлечённого CD

Трек | Старт | Длительность | Начальный сектор | Конечный сектор
---------------------------------------------------------------------
1 | 0:00.00 | 2:23.48 | 0 | 10772
2 | 2:23.48 | 1:42.62 | 10773 | 18484
3 | 4:06.35 | 1:37.42 | 18485 | 25801
4 | 5:44.02 | 2:04.15 | 25802 | 35116
5 | 7:48.17 | 3:07.31 | 35117 | 49172
6 | 10:55.48 | 2:36.45 | 49173 | 60917
7 | 13:32.18 | 2:18.18 | 60918 | 71285
8 | 15:50.36 | 1:58.06 | 71286 | 80141
9 | 17:48.42 | 4:34.51 | 80142 | 100742
10 | 22:23.18 | 2:20.30 | 100743 | 111272
11 | 24:43.48 | 1:24.45 | 111273 | 117617
12 | 26:08.18 | 2:35.66 | 117618 | 129308
13 | 28:44.09 | 2:54.53 | 129309 | 142411
14 | 31:38.62 | 1:56.48 | 142412 | 151159

Характеристики диапазона извлечения и сообщения об ошибках

Выбранный диапазон

Имя файла C:\Ирина Воропаева - Думы мои, думы.wav

Пиковый уровень 97.3 %
Качество диапазона 100.0 %
CRC копии 7083D9EB
Копирование... OK

Ошибок не произошло

AccurateRip: сводка
Трек 1 нет в базе данных
Трек 2 нет в базе данных
Трек 3 нет в базе данных
Трек 4 нет в базе данных
Трек 5 нет в базе данных
Трек 6 нет в базе данных
Трек 7 нет в базе данных
Трек 8 нет в базе данных
Трек 9 нет в базе данных
Трек 10 нет в базе данных
Трек 11 нет в базе данных
Трек 12 нет в базе данных
Трек 13 нет в базе данных
Трек 14 нет в базе данных
Ни одного трека нет в базе AccurateRip

Конец отчёта
Download

Войдите для скачивания торрент-файла

Как скачивать  ·   Правила трекера

[Профиль]  [ЛС] 

iov777

Стаж: 5 лет 7 месяцев

Сообщений: 117

Russia

post 07-Апр-2011 19:01 (спустя 1 год 3 месяца)

[Цитировать] 

Если можно, встаньте кто-нибудь на раздачу! Спаси Господи
[Профиль]  [ЛС] 

larlev

Стаж: 4 года 10 месяцев

Сообщений: 5

post 16-Апр-2012 17:16 (спустя 1 год)

[Цитировать] 

Автора зовут Ирина ВАрапаева. Она кстати директор православных регентских курсов в Даниловском монастыре
[Профиль]  [ЛС] 
Показать сообщения:    
Ответить на тему

Текущее время: 06-Дек 12:25

Часовой пояс: GMT + 4



Вы не можете начинать темы
Вы не можете отвечать на сообщения
Вы не можете редактировать свои сообщения
Вы не можете удалять свои сообщения
Вы не можете голосовать в опросах
Вы не можете прикреплять файлы к сообщениям
Вы не можете скачивать файлы