Loading...
Error

Лариса Кошмина - Свеча lossless FLAC (tracks) + mp3 320 Kbps

Ответить на тему
Статистика раздачи
Скачали: [ 8 ]
   
 
Автор Сообщение

Academic Crack

Администратор

Стаж: 7 лет 11 месяцев

Сообщений: 2078

Russia

post 13-Мар-2009 19:07

[Цитировать] 

Лариса Кошмина - Свеча lossless FLAC (tracks) + mp3 320 Kbps
pic
Год выпуска: неизвестно
Жанр: Духовные песни
Издание: Самопальное (!!!изначально такое!!!)
Аудио кодек: FLAC/ mp3
Тип рипа: tracks
Частота дискретизации: 44,1 kHz
Битрейт аудио: lossless + mp3 320 Kbps
Исполнитель: Лариса Кошмина
Продолжительность: 52:25

Описание: Духовные песни Ларисы Кошминой в исполнении автора.
Звукорежиссер, бэк-вокал - Виталий Кошмин.

Внимание!
Кто хочет скачать только лишь mp3, то выбираем соответствующую папку в торренте при добавлении закачки. Кто хочет скачать только lossless - то же самое. контент lossless и lossy идентичны. Кто хочет скачать все - качайте все. Скан обложки в разрешении 300 dpi, скрины Tau Analyzer (главное окно + спектрограммы треков + частотограммы из-за спорности главного окна), а также log-файл EAC приложены к раздаче.

Прослушать сэмпл (по ссылке дождитесь загрузки панельки flash-проигрывателя и кликните на кнопку воспроизведения)

О том, как воспроизводить lossless-форматы на компьютере, читайте здесь.

Треклист:
01. Очистись 03:11
02. Свеча 04:24
03. Венок 04:57
04. Небесные друзья 03:48
05. Суд любви 02:24
06. Не унывай! 04:00
07. Спасибо 02:20
08. Не обрывай... 03:44
09. Надежды позолоченные ризы 02:36
10. Путница 03:46
11. Патриарший престол 04:55
12. Пробуждение 02:49
13. Любовь 04:50
14. Жизнь-река 02:15
15. Катенька 02:20
Лог EAC
Exact Audio Copy V0.99 prebeta 4 from 23. January 2008

Отчёт EAC об извлечении, выполненном 13. марта 2009, 13:43

Лариса Кошмина / Свеча

Дисковод: ASUS DRW-2014L1 Adapter: 2 ID: 0

Режим чтения : Достоверность
Использование точного потока : Да
Отключение кэша аудио : Да
Использование указателей C2 : Нет

Коррекция смещения при чтении : 6
Способность читать области Lead-in и Lead-out : Нет
Заполнение пропущенных сэмплов тишиной : Да
Удаление блоков с тишиной в начале и конце : Нет
При вычислениях CRC использовались нулевые сэмплы : Да
Интерфейс : Установленный внешний ASPI-интерфейс
Обработка зазоров : Добавлено к предыдущему треку

Выходной формат : Внутренние WAV-операции
Формат сэмплов : 44.100 Гц; 16 бит; стерео

TOC извлечённого CD

Трек | Старт | Длительность | Начальный сектор | Конечный сектор
---------------------------------------------------------------------
1 | 0:00.00 | 3:11.22 | 0 | 14346
2 | 3:11.22 | 4:24.41 | 14347 | 34187
3 | 7:35.63 | 4:57.42 | 34188 | 56504
4 | 12:33.30 | 3:48.42 | 56505 | 73646
5 | 16:21.72 | 2:24.53 | 73647 | 84499
6 | 18:46.50 | 4:00.42 | 84500 | 102541
7 | 22:47.17 | 2:20.14 | 102542 | 113055
8 | 25:07.31 | 3:44.54 | 113056 | 129909
9 | 28:52.10 | 2:36.64 | 129910 | 141673
10 | 31:28.74 | 3:46.31 | 141674 | 158654
11 | 35:15.30 | 4:55.41 | 158655 | 180820
12 | 40:10.71 | 2:49.30 | 180821 | 193525
13 | 43:00.26 | 4:50.30 | 193526 | 215305
14 | 47:50.56 | 2:15.11 | 215306 | 225441
15 | 50:05.67 | 2:20.07 | 225442 | 235948

Трек 1

Имя файла J:\Religion\Лариса Кошмина - Свеча\lossless\Image\01. Очистись.wav

Длина предзазора 0:00:02.00

Пиковый уровень 100.0 %
Качество трека 100.0 %
CRC теста 4D87BD8F
CRC копии 4D87BD8F
Трек не обнаружен в базе AccurateRip
Копирование... OK

Трек 2

Имя файла J:\Religion\Лариса Кошмина - Свеча\lossless\Image\02. Свеча.wav

Длина предзазора 0:00:02.00

Пиковый уровень 100.0 %
Качество трека 100.0 %
CRC теста E6794FB3
CRC копии E6794FB3
Трек не обнаружен в базе AccurateRip
Копирование... OK

Трек 3

Имя файла J:\Religion\Лариса Кошмина - Свеча\lossless\Image\03. Венок.wav

Длина предзазора 0:00:02.00

Пиковый уровень 100.0 %
Качество трека 100.0 %
CRC теста BB6D06AE
CRC копии BB6D06AE
Трек не обнаружен в базе AccurateRip
Копирование... OK

Трек 4

Имя файла J:\Religion\Лариса Кошмина - Свеча\lossless\Image\04. Небесные друзья.wav

Длина предзазора 0:00:02.00

Пиковый уровень 100.0 %
Качество трека 100.0 %
CRC теста DB6B9A25
CRC копии DB6B9A25
Трек не обнаружен в базе AccurateRip
Копирование... OK

Трек 5

Имя файла J:\Religion\Лариса Кошмина - Свеча\lossless\Image\05. Суд любви.wav

Длина предзазора 0:00:02.00

Пиковый уровень 100.0 %
Качество трека 100.0 %
CRC теста 89609B7C
CRC копии 89609B7C
Трек не обнаружен в базе AccurateRip
Копирование... OK

Трек 6

Имя файла J:\Religion\Лариса Кошмина - Свеча\lossless\Image\06. Не унывай!.wav

Длина предзазора 0:00:02.00

Пиковый уровень 100.0 %
Качество трека 100.0 %
CRC теста 8C95D25A
CRC копии 8C95D25A
Трек не обнаружен в базе AccurateRip
Копирование... OK

Трек 7

Имя файла J:\Religion\Лариса Кошмина - Свеча\lossless\Image\07. Спасибо.wav

Длина предзазора 0:00:02.00

Пиковый уровень 100.0 %
Качество трека 100.0 %
CRC теста D9E18753
CRC копии D9E18753
Трек не обнаружен в базе AccurateRip
Копирование... OK

Трек 8

Имя файла J:\Religion\Лариса Кошмина - Свеча\lossless\Image\08. Не обрывай....wav

Длина предзазора 0:00:02.00

Пиковый уровень 91.4 %
Качество трека 100.0 %
CRC теста 0248FC98
CRC копии 0248FC98
Трек не обнаружен в базе AccurateRip
Копирование... OK

Трек 9

Имя файла J:\Religion\Лариса Кошмина - Свеча\lossless\Image\09. Надежды позолоченные ризы.wav

Длина предзазора 0:00:02.00

Пиковый уровень 100.0 %
Качество трека 100.0 %
CRC теста 9F66814C
CRC копии 9F66814C
Трек не обнаружен в базе AccurateRip
Копирование... OK

Трек 10

Имя файла J:\Religion\Лариса Кошмина - Свеча\lossless\Image\10. Путница.wav

Длина предзазора 0:00:02.00

Пиковый уровень 91.3 %
Качество трека 100.0 %
CRC теста FC00C913
CRC копии FC00C913
Трек не обнаружен в базе AccurateRip
Копирование... OK

Трек 11

Имя файла J:\Religion\Лариса Кошмина - Свеча\lossless\Image\11. Патриарший престол.wav

Длина предзазора 0:00:02.00

Пиковый уровень 100.0 %
Качество трека 99.9 %
CRC теста DADD0218
CRC копии DADD0218
Трек не обнаружен в базе AccurateRip
Копирование... OK

Трек 12

Имя файла J:\Religion\Лариса Кошмина - Свеча\lossless\Image\12. Пробуждение.wav

Длина предзазора 0:00:02.00

Пиковый уровень 100.0 %
Качество трека 100.0 %
CRC теста BAB81B52
CRC копии BAB81B52
Трек не обнаружен в базе AccurateRip
Копирование... OK

Трек 13

Имя файла J:\Religion\Лариса Кошмина - Свеча\lossless\Image\13. Любовь.wav

Длина предзазора 0:00:02.00

Пиковый уровень 100.0 %
Качество трека 100.0 %
CRC теста B30B4DA8
CRC копии B30B4DA8
Трек не обнаружен в базе AccurateRip
Копирование... OK

Трек 14

Имя файла J:\Religion\Лариса Кошмина - Свеча\lossless\Image\14. Жизнь-река.wav

Длина предзазора 0:00:02.00

Пиковый уровень 100.0 %
Качество трека 99.9 %
CRC теста CC18E809
CRC копии CC18E809
Трек не обнаружен в базе AccurateRip
Копирование... OK

Трек 15

Имя файла J:\Religion\Лариса Кошмина - Свеча\lossless\Image\15. Катенька.wav

Длина предзазора 0:00:02.00

Пиковый уровень 100.0 %
Качество трека 100.0 %
CRC теста 240970E8
CRC копии 240970E8
Трек не обнаружен в базе AccurateRip
Копирование... OK

Ни одного трека нет в базе AccurateRip

Ошибок не произошло

Конец отчёта
Tau Analyzer
pic
Обложка
pic
Download

Войдите для скачивания торрент-файла

Как скачивать  ·   Правила трекера


_________________
pic
pic 100 Мбит/с, pic 100 Мбит/с.
Исправили раздачу? Пишите в личку со ссылкой на раздачу.


Последний раз редактировалось: Academic Crack (2011-03-08 01:02), всего редактировалось 1 раз
[Профиль]  [ЛС] 

redwest

Стаж: 6 лет 10 месяцев

Сообщений: 21

Russia

post 30-Ноя-2010 23:16 (спустя 1 год 8 месяцев)

[Цитировать] 

Большое Спасибо !!!!
[Профиль]  [ЛС] 

mandragor

post 11-Дек-2010 23:44 (спустя 11 дней)

[Цитировать] 

песни очень понравились!
Спаси Госроди!
 

Людмила Павловна

Стаж: 6 лет 5 месяцев

Сообщений: 25

Russia

post 03-Янв-2011 23:50 (спустя 23 дня)

[Цитировать] 

Спаси Господи! Хорошие песни.
[Профиль]  [ЛС] 

potemkin11

Стаж: 6 лет 8 месяцев

Сообщений: 42

Belarus

post 16-Янв-2011 17:45 (спустя 12 дней)

[Цитировать] 

Спаси Господи!!
[Профиль]  [ЛС] 

raip

Стаж: 5 лет 7 месяцев

Сообщений: 3

Russia

post 06-Окт-2011 09:52 (спустя 8 месяцев)

[Цитировать] 

Благодарю. Огромное спасибо.

До слез..
[Профиль]  [ЛС] 

adyur

Стаж: 5 лет 10 месяцев

Сообщений: 13

Russia

post 26-Ноя-2011 15:56 (спустя 1 месяц 20 дней)

[Цитировать] 

спасибо!
[Профиль]  [ЛС] 

Кириченко Денис

Стаж: 5 лет

Сообщений: 88

Kazakhstan

post 15-Дек-2011 20:28 (спустя 19 дней)

[Цитировать] 

Храни вас Господь!
[Профиль]  [ЛС] 

don-vinto

Стаж: 2 года 10 месяцев

Сообщений: 1

Israel

post 02-Фев-2014 23:02 (спустя 2 года 1 месяц)

[Цитировать] 

Спасибо .Мир вашему дому!
[Профиль]  [ЛС] 

SvetlanaSV

Стаж: 2 года 2 месяца

Сообщений: 74

post 09-Сен-2014 14:10 (спустя 7 месяцев)

[Цитировать] 

Спасибо!!
[Профиль]  [ЛС] 

Gala277

Стаж: 9 месяцев

Сообщений: 123

Russia

post 16-Май-2016 15:43 (спустя 1 год 8 месяцев)

[Цитировать] 

Спасибо большое
[Профиль]  [ЛС] 

Gala277

Стаж: 9 месяцев

Сообщений: 123

Russia

post 16-Май-2016 15:44 (спустя 1 минута)

[Цитировать] 

Храни вас Господь! Спасибо большое
[Профиль]  [ЛС] 
Показать сообщения:    
Ответить на тему

Текущее время: 05-Дек 00:24

Часовой пояс: GMT + 4



Вы не можете начинать темы
Вы не можете отвечать на сообщения
Вы не можете редактировать свои сообщения
Вы не можете удалять свои сообщения
Вы не можете голосовать в опросах
Вы не можете прикреплять файлы к сообщениям
Вы не можете скачивать файлы