Loading...
Error

Христу Богу работать легко...матушка Людмила Кононова -[ Лучшие песни разных лет, MPEG Audio(MP3), 320 kbps]

Ответить на тему
Статистика раздачи
Скачали: [ 6 ]
   
 
Автор Сообщение

andrejpushkaryov

Модератор

Стаж: 7 лет 7 месяцев

Сообщений: 997

Откуда: Ижевск

Russia

post 09-Ноя-2009 10:05

[Цитировать] 

Христу Богу работать легко... матушка Людмила Кононова
Лучшие песни разных лет

pic
Страна: Россия
Жанр: авторская песня
Год выпуска: 2003
Формат: MPEG Audio(MP3)
Битрейт аудио: 320 kbps stereo
Продолжительность: 65:06 + 61:05
Трэклист:
CD 1:
1. Осеняла крестным знамением - 5:04
2. А двери с петель сорваны - 3:05
3. Лягу на ветер - 2:20
4. Интеллигенции начала XX века - 3:24
5. Где нянчил птиц озерный плёс - 2:58
6. Золотила храмы летняя заря - 4:43
7. Молитва Александра Вертинского на первом концерте по возвращении из эмиграции - 2:40
8. Ловись, ловись, душка - 2:30
9. Посвящается деду - 3:00
10. Пост Великий на Руси - 2:37
11. Ангел последний - 4:32
12. Как давно я не писала стихов - 2:31
13. Девочка со скрипкою в руках - 3:04
14. Венчальная - 2:25
15. Опять заплакала природа - 2:25
16. Псалом боевой - 2:05
17. Плачет маленький ребенок - 2:25
18. Синева - 3:00
19. Колыбельная русскому народу - 2:06
20. Снег идет по Божьей воле - 2:20
21. Ты видишь всходящего солнца лучи?! - 1:11
22. Мы вышли из тоннеля - 2:13
23. Перед числом благовею - 2:17
CD 2:
1. Как стояли у причала - 3:12
2. Уходите, мысли черны - 1:32
3. Собирала Богородица - 2:34
4. Макума - 1:03
5. Гибель антихриста - 1:25
6. Калика перехожая - 3:14
7. Ни облаков, плывущих над полями - 1:55
8. А к утру изуверы устали - 2:45
9. Поэтам железного века - 4:15
10. Иверская - 3:07
11. Старушка - 1:34
12. Урожай рябины и грибов - 2:57
13. Низко ласточки летают - 3:43
14. Что-й-то пахнет гарью - 3:46
15. Вот-вот в перелеске пустом - 2:25
16. К Музе - 3:54
17. О чем ты думаешь, Василий... - 2:10
18. Великопостная - 3:07
19. Научи меня жить сегодня - 3:47
20. Оптинская - 3:52
21. Душа омоется - 4:11
22. Христу Богу работать легко - 0:30
Обложка
pic
EAC log
Exact Audio Copy V0.99 prebeta 5 from 4. May 2009

Отчёт EAC об извлечении, выполненном 7. ноября 2009, 13:58

Матушка Людмила Кононова / Христу Богу работать легко... №1

Дисковод: _NEC DVD_RW ND-4570A Adapter: 0 ID: 1

Режим чтения : Достоверность
Использование точного потока : Да
Отключение кэша аудио : Да
Использование указателей C2 : Нет

Коррекция смещения при чтении : 48
Способность читать области Lead-in и Lead-out : Нет
Заполнение пропущенных сэмплов тишиной : Да
Удаление блоков с тишиной в начале и конце : Нет
При вычислениях CRC использовались нулевые сэмплы : Да
Интерфейс : Установленный внешний ASPI-интерфейс
Обработка зазоров : Не обнаружено, добавлено к предыдущему треку

Выходной формат : Пользовательский кодировщик
Выбранный битрейт : 768 kBit/s
Качество : Высокий
Добавление ID3-тэга : Да
Утилита сжатия : C:\Program Files\Exact Audio Copy\lame.exe
Дополнительные параметры : --preset insane -q 2 %s %d

TOC извлечённого CD

Трек | Старт | Длительность | Начальный сектор | Конечный сектор
---------------------------------------------------------------------
1 | 0:00.00 | 5:04.49 | 0 | 22848
2 | 5:04.49 | 3:05.43 | 22849 | 36766
3 | 8:10.17 | 2:20.33 | 36767 | 47299
4 | 10:30.50 | 3:24.08 | 47300 | 62607
5 | 13:54.58 | 2:58.11 | 62608 | 75968
6 | 16:52.69 | 4:43.20 | 75969 | 97213
7 | 21:36.14 | 2:40.03 | 97214 | 109216
8 | 24:16.17 | 2:30.30 | 109217 | 120496
9 | 26:46.47 | 3:00.52 | 120497 | 134048
10 | 29:47.24 | 2:37.12 | 134049 | 145835
11 | 32:24.36 | 4:32.16 | 145836 | 166251
12 | 36:56.52 | 2:31.61 | 166252 | 177637
13 | 39:28.38 | 3:04.73 | 177638 | 191510
14 | 42:33.36 | 2:25.27 | 191511 | 202412
15 | 44:58.63 | 2:25.08 | 202413 | 213295
16 | 47:23.71 | 2:05.07 | 213296 | 222677
17 | 49:29.03 | 2:25.42 | 222678 | 233594
18 | 51:54.45 | 3:00.26 | 233595 | 247120
19 | 54:54.71 | 2:06.70 | 247121 | 256640
20 | 57:01.66 | 2:20.52 | 256641 | 267192
21 | 59:22.43 | 1:11.41 | 267193 | 272558
22 | 60:34.09 | 2:13.00 | 272559 | 282533
23 | 62:47.09 | 2:17.12 | 282534 | 292820

Трек 1

Имя файла F:\01. Матушка Людмила Кононова - Осеняла крестным знамением.wav

Пиковый уровень 100.0 %
Качество трека 100.0 %
CRC копии DEF1AD2D
Трек не обнаружен в базе AccurateRip
Копирование... OK

Трек 2

Имя файла F:\02. Матушка Людмила Кононова - А двери с петель сорваны.wav

Пиковый уровень 99.5 %
Качество трека 100.0 %
CRC копии 140C00F3
Трек не обнаружен в базе AccurateRip
Копирование... OK

Трек 3

Имя файла F:\03. Матушка Людмила Кононова - Лягу на ветер.wav

Пиковый уровень 100.0 %
Качество трека 99.9 %
CRC копии 2C39AA91
Трек не обнаружен в базе AccurateRip
Копирование... OK

Трек 4

Имя файла F:\04. Матушка Людмила Кононова - Интеллигенции начала XX века.wav

Пиковый уровень 89.5 %
Качество трека 100.0 %
CRC копии 88E25042
Трек не обнаружен в базе AccurateRip
Копирование... OK

Трек 5

Имя файла F:\05. Матушка Людмила Кононова - Где нянчил птиц озерный плес.wav

Пиковый уровень 100.0 %
Качество трека 100.0 %
CRC копии 8CB6B5CA
Трек не обнаружен в базе AccurateRip
Копирование... OK

Трек 6

Имя файла F:\06. Матушка Людмила Кононова - Золотила храмы летняя заря.wav

Пиковый уровень 99.1 %
Качество трека 99.9 %
CRC копии E4B7ECAA
Трек не обнаружен в базе AccurateRip
Копирование... OK

Трек 7

Имя файла F:\07. Матушка Людмила Кононова - Молитва Александра Вертинского на первом концерте по возвращении из эмиграции.wav

Пиковый уровень 100.0 %
Качество трека 99.9 %
CRC копии 42905156
Трек не обнаружен в базе AccurateRip
Копирование... OK

Трек 8

Имя файла F:\08. Матушка Людмила Кононова - Ловись, ловись душка.wav

Пиковый уровень 100.0 %
Качество трека 99.9 %
CRC копии 541DB52A
Трек не обнаружен в базе AccurateRip
Копирование... OK

Трек 9

Имя файла F:\09. Матушка Людмила Кононова - Посвящается деду.wav

Пиковый уровень 100.0 %
Качество трека 100.0 %
CRC копии DEC58283
Трек не обнаружен в базе AccurateRip
Копирование... OK

Трек 10

Имя файла F:\10. Матушка Людмила Кононова - Пост Великий на Руси.wav

Пиковый уровень 100.0 %
Качество трека 100.0 %
CRC копии ADF477BF
Трек не обнаружен в базе AccurateRip
Копирование... OK

Трек 11

Имя файла F:\11. Матушка Людмила Кононова - Ангел Последний.wav

Пиковый уровень 100.0 %
Качество трека 100.0 %
CRC копии 6F51E88F
Трек не обнаружен в базе AccurateRip
Копирование... OK

Трек 12

Имя файла F:\12. Матушка Людмила Кононова - Как давно не писала стихов.wav

Пиковый уровень 100.0 %
Качество трека 100.0 %
CRC копии C64F91B4
Трек не обнаружен в базе AccurateRip
Копирование... OK

Трек 13

Имя файла F:\13. Матушка Людмила Кононова - Девочка со скрипкою в руках.wav

Пиковый уровень 100.0 %
Качество трека 99.9 %
CRC копии C11661BA
Трек не обнаружен в базе AccurateRip
Копирование... OK

Трек 14

Имя файла F:\14. Матушка Людмила Кононова - Венчальная.wav

Пиковый уровень 99.2 %
Качество трека 99.8 %
CRC копии 7D695B56
Трек не обнаружен в базе AccurateRip
Копирование... OK

Трек 15

Имя файла F:\15. Матушка Людмила Кононова - Опять заплакала природа.wav

Пиковый уровень 100.0 %
Качество трека 97.0 %
CRC копии A1E7D472
Трек не обнаружен в базе AccurateRip
Копирование... OK

Трек 16

Имя файла F:\16. Матушка Людмила Кононова - Псалом боевой.wav

Пиковый уровень 98.3 %
Качество трека 100.0 %
CRC копии 75E86BE8
Трек не обнаружен в базе AccurateRip
Копирование... OK

Трек 17

Имя файла F:\17. Матушка Людмила Кононова - Плачет маленький ребенок.wav

Пиковый уровень 66.9 %
Качество трека 100.0 %
CRC копии D7FBBF1B
Трек не обнаружен в базе AccurateRip
Копирование... OK

Трек 18

Имя файла F:\18. Матушка Людмила Кононова - Синева.wav

Пиковый уровень 98.7 %
Качество трека 100.0 %
CRC копии 1F979982
Трек не обнаружен в базе AccurateRip
Копирование... OK

Трек 19

Имя файла F:\19. Матушка Людмила Кононова - Колыбельная русскому народу.wav

Пиковый уровень 98.8 %
Качество трека 100.0 %
CRC копии 4270D376
Трек не обнаружен в базе AccurateRip
Копирование... OK

Трек 20

Имя файла F:\20. Матушка Людмила Кононова - Снег идет по Божьей воле.wav

Пиковый уровень 79.3 %
Качество трека 100.0 %
CRC копии C25165C2
Трек не обнаружен в базе AccurateRip
Копирование... OK

Трек 21

Имя файла F:\21. Матушка Людмила Кононова - Ты видишь всходящего солнца лучи !.wav

Пиковый уровень 98.7 %
Качество трека 100.0 %
CRC копии FB5DA2A6
Трек не обнаружен в базе AccurateRip
Копирование... OK

Трек 22

Имя файла F:\22. Матушка Людмила Кононова - Мы вышли из тунеля.wav

Пиковый уровень 98.7 %
Качество трека 100.0 %
CRC копии 9F54EB9C
Трек не обнаружен в базе AccurateRip
Копирование... OK

Трек 23

Имя файла F:\23. Матушка Людмила Кононова - Перед числом благоговею.wav
Пиковый уровень 89.9 %
Качество трека 100.0 %
CRC копии C25163d2
Трек не обнаружен в базе AccurateRip
Копирование... OK


23 трек(и) не содержатся в базе AccurateRip

Ни один трек не прошёл проверки на точность

Были ошибки

Конец отчёта

++++++++++++++++++++++++++++++++++++++++++++++++++++++++++++++++++++++++++++++++++++++++++++++++

Exact Audio Copy V0.99 prebeta 5 from 4. May 2009

Отчёт EAC об извлечении, выполненном 7. ноября 2009, 14:35

Матушка Людмила Кононова / Христу Богу работать легко... №2

Дисковод: _NEC DVD_RW ND-4570A Adapter: 0 ID: 1

Режим чтения : Достоверность
Использование точного потока : Да
Отключение кэша аудио : Да
Использование указателей C2 : Нет

Коррекция смещения при чтении : 48
Способность читать области Lead-in и Lead-out : Нет
Заполнение пропущенных сэмплов тишиной : Да
Удаление блоков с тишиной в начале и конце : Нет
При вычислениях CRC использовались нулевые сэмплы : Да
Интерфейс : Установленный внешний ASPI-интерфейс
Обработка зазоров : Не обнаружено, добавлено к предыдущему треку

Выходной формат : Пользовательский кодировщик
Выбранный битрейт : 768 kBit/s
Качество : Высокий
Добавление ID3-тэга : Да
Утилита сжатия : C:\Program Files\Exact Audio Copy\lame.exe
Дополнительные параметры : --preset insane -q 2 %s %d

TOC извлечённого CD

Трек | Старт | Длительность | Начальный сектор | Конечный сектор
---------------------------------------------------------------------
1 | 0:00.00 | 3:12.21 | 0 | 14420
2 | 3:12.21 | 1:32.55 | 14421 | 21375
3 | 4:45.01 | 2:34.38 | 21376 | 32963
4 | 7:19.39 | 1:03.03 | 32964 | 37691
5 | 8:22.42 | 1:25.06 | 37692 | 44072
6 | 9:47.48 | 3:14.23 | 44073 | 58645
7 | 13:01.71 | 1:55.50 | 58646 | 67320
8 | 14:57.46 | 2:45.56 | 67321 | 79751
9 | 17:43.27 | 4:15.20 | 79752 | 98896
10 | 21:58.47 | 3:07.46 | 98897 | 112967
11 | 25:06.18 | 1:34.33 | 112968 | 120050
12 | 26:40.51 | 2:57.45 | 120051 | 133370
13 | 29:38.21 | 3:43.06 | 133371 | 150101
14 | 33:21.27 | 3:46.12 | 150102 | 167063
15 | 37:07.39 | 2:25.56 | 167064 | 177994
16 | 39:33.20 | 3:54.07 | 177995 | 195551
17 | 43:27.27 | 2:10.27 | 195552 | 205328
18 | 45:37.54 | 3:07.35 | 205329 | 219388
19 | 48:45.14 | 3:47.08 | 219389 | 236421
20 | 52:32.22 | 3:52.66 | 236422 | 253887
21 | 56:25.13 | 4:11.63 | 253888 | 272775
22 | 60:37.01 | 0:30.37 | 272776 | 275062

Трек 1

Имя файла F:\CD 2\01. Матушка Людмила Кононова - Как стояли у причала.wav

Пиковый уровень 98.7 %
Качество трека 99.9 %
CRC копии BD8C9245
Трек не обнаружен в базе AccurateRip
Копирование... OK

Трек 2

Имя файла F:\CD 2\02. Матушка Людмила Кононова - Уходите, мысли черны.wav

Пиковый уровень 98.4 %
Качество трека 100.0 %
CRC копии 6734F7F0
Трек не обнаружен в базе AccurateRip
Копирование... OK

Трек 3

Имя файла F:\CD 2\03. Матушка Людмила Кононова - Собирала Богородица.wav

Пиковый уровень 98.8 %
Качество трека 100.0 %
CRC копии 23702280
Трек не обнаружен в базе AccurateRip
Копирование... OK

Трек 4

Имя файла F:\CD 2\04. Матушка Людмила Кононова - Макума.wav

Пиковый уровень 53.1 %
Качество трека 100.0 %
CRC копии F296BA55
Трек не обнаружен в базе AccurateRip
Копирование... OK

Трек 5

Имя файла F:\CD 2\05. Матушка Людмила Кононова - Гибель антихриста.wav

Пиковый уровень 98.8 %
Качество трека 100.0 %
CRC копии CFCCB592
Трек не обнаружен в базе AccurateRip
Копирование... OK

Трек 6

Имя файла F:\CD 2\06. Матушка Людмила Кононова - Калика перехожая.wav

Пиковый уровень 98.7 %
Качество трека 100.0 %
CRC копии 08D26263
Трек не обнаружен в базе AccurateRip
Копирование... OK

Трек 7

Имя файла F:\CD 2\07. Матушка Людмила Кононова - Ни облаков, плывущих над полями.wav

Пиковый уровень 72.2 %
Качество трека 100.0 %
CRC копии EFA31205
Трек не обнаружен в базе AccurateRip
Копирование... OK

Трек 8

Имя файла F:\CD 2\08. Матушка Людмила Кононова - А к утру изуверы устали.wav

Пиковый уровень 82.3 %
Качество трека 100.0 %
CRC копии 5E17B04D
Трек не обнаружен в базе AccurateRip
Копирование... OK

Трек 9

Имя файла F:\CD 2\09. Матушка Людмила Кононова - Поэтам железного века.wav

Пиковый уровень 96.5 %
Качество трека 100.0 %
CRC копии E9B66838
Трек не обнаружен в базе AccurateRip
Копирование... OK

Трек 10

Имя файла F:\CD 2\10. Матушка Людмила Кононова - Иверская.wav

Пиковый уровень 96.1 %
Качество трека 99.9 %
CRC копии AE5DE383
Трек не обнаружен в базе AccurateRip
Копирование... OK

Трек 11

Имя файла F:\CD 2\11. Матушка Людмила Кононова - Старушка.wav

Пиковый уровень 49.8 %
Качество трека 100.0 %
CRC копии 1EBDD9DB
Трек не обнаружен в базе AccurateRip
Копирование... OK

Трек 12

Имя файла F:\CD 2\12. Матушка Людмила Кононова - Урожай рябины и грибов.wav

Пиковый уровень 96.0 %
Качество трека 100.0 %
CRC копии 5D5F778F
Трек не обнаружен в базе AccurateRip
Копирование... OK

Трек 13

Имя файла F:\CD 2\13. Матушка Людмила Кононова - Низко ласточки летают.wav

Пиковый уровень 96.1 %
Качество трека 100.0 %
CRC копии 2F9ABD4D
Трек не обнаружен в базе AccurateRip
Копирование... OK

Трек 14

Имя файла F:\CD 2\14. Матушка Людмила Кононова - Что-й-то пахнет гарью.wav

Пиковый уровень 96.1 %
Качество трека 100.0 %
CRC копии 8928B4B8
Трек не обнаружен в базе AccurateRip
Копирование... OK

Трек 15

Имя файла F:\CD 2\15. Матушка Людмила Кононова - Вот-вот в перелеске пустом.wav

Пиковый уровень 96.2 %
Качество трека 100.0 %
CRC копии C128EBEA
Трек не обнаружен в базе AccurateRip
Копирование... OK

Трек 16

Имя файла F:\CD 2\16. Матушка Людмила Кононова - К Музе.wav

Пиковый уровень 96.1 %
Качество трека 99.9 %
CRC копии B5EF00FD
Трек не обнаружен в базе AccurateRip
Копирование... OK

Трек 17

Имя файла F:\CD 2\17. Матушка Людмила Кононова - О чем ты думаешь, Василий.wav

Пиковый уровень 59.9 %
Качество трека 100.0 %
CRC копии C205A840
Трек не обнаружен в базе AccurateRip
Копирование... OK

Трек 18

Имя файла F:\CD 2\18. Матушка Людмила Кононова - Великопостная.wav

Пиковый уровень 96.1 %
Качество трека 100.0 %
CRC копии 3EA2225D
Трек не обнаружен в базе AccurateRip
Копирование... OK

Трек 19

Имя файла F:\CD 2\19. Матушка Людмила Кононова - Научи меня жить сегодня.wav

Пиковый уровень 96.5 %
Качество трека 99.9 %
CRC копии DB9A6094
Трек не обнаружен в базе AccurateRip
Копирование... OK

Трек 20

Имя файла F:\CD 2\20. Матушка Людмила Кононова - Оптинская.wav

Пиковый уровень 96.5 %
Качество трека 100.0 %
CRC копии 33334B00
Трек не обнаружен в базе AccurateRip
Копирование... OK

Трек 21

Имя файла F:\CD 2\21. Матушка Людмила Кононова - Душа омоется.wav

Пиковый уровень 96.1 %
Качество трека 100.0 %
CRC копии 3899A445
Трек не обнаружен в базе AccurateRip
Копирование... OK

Трек 22

Имя файла F:\CD 2\22. Матушка Людмила Кононова - Христу Богу работать легко.wav

Пиковый уровень 75.1 %
Качество трека 100.0 %
CRC копии F6EA0DB8
Трек не обнаружен в базе AccurateRip
Копирование... OK

Ни одного трека нет в базе AccurateRip

Ошибок не произошло

Конец отчёта
Download

Войдите для скачивания торрент-файла

Как скачивать  ·   Правила трекера



Последний раз редактировалось: andrejpushkaryov (2011-03-14 21:27), всего редактировалось 1 раз
[Профиль]  [ЛС] 

Игорь I

Стаж: 7 лет 7 месяцев

Сообщений: 1503

Russia

post 10-Ноя-2009 19:34 (спустя 1 день 9 часов)

[Цитировать] 

Благодарю!
[Профиль]  [ЛС] 

vopros2307

post 21-Фев-2010 16:07 (спустя 3 месяца 10 дней)

[Цитировать] 

помогите с закачкой
 

MarSoft

Стаж: 6 лет 9 месяцев

Сообщений: 1

Откуда: Москва

Russia

post 09-Апр-2010 18:59 (спустя 1 месяц 16 дней)

[Цитировать] 

Обложка диска не загружается.
[Профиль]  [ЛС] 

nickolay

Стаж: 6 лет 11 месяцев

Сообщений: 1

post 13-Ноя-2010 19:22 (спустя 7 месяцев)

[Цитировать] 

станьте на раздачу
[Профиль]  [ЛС] 

ermvik

Стаж: 5 лет 9 месяцев

Сообщений: 4

post 02-Мар-2011 09:15 (спустя 3 месяца 18 дней)

[Цитировать] 

огромное спасибо!
[Профиль]  [ЛС] 

Damian

Стаж: 7 лет

Сообщений: 1838

Откуда: Донбасс

Russia

post 02-Мар-2011 10:23 (спустя 1 час 8 минут)

[Цитировать] 

Спасибо

_________________
Помолимся!
[Профиль]  [ЛС] 

Климентина

Стаж: 5 лет 10 месяцев

Сообщений: 22

Russia

post 28-Апр-2011 12:47 (спустя 1 месяц 26 дней)

[Цитировать] 

Спасибо!
[Профиль]  [ЛС] 

Никола_5

Стаж: 5 лет 4 месяца

Сообщений: 7

Russia

post 08-Июл-2011 18:13 (спустя 2 месяца 10 дней)

[Цитировать] 

Спаси Господи.
[Профиль]  [ЛС] 

rOman199

Стаж: 7 лет 9 месяцев

Сообщений: 296

Russia

post 09-Июл-2011 13:44 (спустя 19 часов)

[Цитировать] 

Благодарю.
[Профиль]  [ЛС] 

Endrus

post 10-Июн-2012 14:22 (спустя 11 месяцев)

[Цитировать] 

Поздравляю с праздником Всех Святых. Желаю духовного спасения!
 

serg23

Стаж: 10 месяцев

Сообщений: 2

Russia

post 27-Янв-2016 00:33 (спустя 3 года 7 месяцев)

[Цитировать] 

Спасибо большое
[Профиль]  [ЛС] 
Показать сообщения:    
Ответить на тему

Текущее время: 06-Дек 12:38

Часовой пояс: GMT + 4



Вы не можете начинать темы
Вы не можете отвечать на сообщения
Вы не можете редактировать свои сообщения
Вы не можете удалять свои сообщения
Вы не можете голосовать в опросах
Вы не можете прикреплять файлы к сообщениям
Вы не можете скачивать файлы