Loading...
Error

(Песни авторов и исполнителей (lossless).) "Колядки, Украинские и Русские народные песни в исполнении И. С. Козловского". - 2005, APE (image + .cue), lossless

Ответить на тему
Статистика раздачи
Скачали: [ 6 ]
   
 
Автор Сообщение

СЕРГУЛЕТ

Стаж: 7 лет 9 месяцев

Сообщений: 2639

Откуда: LA ROMANA

Dominicanrep

post 06-Окт-2009 10:26

[Цитировать] 

"Колядки, Украинские и Русские народные песни в исполнении И. С. Козловского".

pic
Страна: Россия. Издание Саратовской Епархии.
Жанр: Песни авторов и исполнителей (lossless).
Год выпуска: 2005
Формат: APE (image + .cue)
Битрейт аудио: lossless
Продолжительность: 01:12:58
Содержание+Обложки
picpicpic
EAC log
Exact Audio Copy V0.99 prebeta 5 from 4. May 2009

Отчёт EAC об извлечении, выполненном 5. октября 2009, 23:21

И. В. Козловский / Колядки, украинские и русские народные песни

Дисковод: ASUS BC-1205PT Adapter: 1 ID: 0

Режим чтения : Достоверность
Использование точного потока : Да
Отключение кэша аудио : Да
Использование указателей C2 : Нет

Коррекция смещения при чтении : 667
Способность читать области Lead-in и Lead-out : Нет
Заполнение пропущенных сэмплов тишиной : Да
Удаление блоков с тишиной в начале и конце : Нет
При вычислениях CRC использовались нулевые сэмплы : Да
Интерфейс : Встроенный Win32-интерфейс для Win NT/2000

Выходной формат : Внутренние WAV-операции
Формат сэмплов : 44.100 Гц; 16 бит; стерео

TOC извлечённого CD

Трек | Старт | Длительность | Начальный сектор | Конечный сектор
---------------------------------------------------------------------
1 | 0:00.00 | 6:04.02 | 0 | 27301
2 | 6:04.02 | 3:07.70 | 27302 | 41396
3 | 9:11.72 | 4:57.56 | 41397 | 63727
4 | 14:09.53 | 2:39.42 | 63728 | 75694
5 | 16:49.20 | 2:32.46 | 75695 | 87140
6 | 19:21.66 | 1:24.37 | 87141 | 93477
7 | 20:46.28 | 3:18.26 | 93478 | 108353
8 | 24:04.54 | 2:48.25 | 108354 | 120978
9 | 26:53.04 | 2:33.48 | 120979 | 132501
10 | 29:26.52 | 3:40.73 | 132502 | 149074
11 | 33:07.50 | 3:58.66 | 149075 | 166990
12 | 37:06.41 | 1:17.41 | 166991 | 172806
13 | 38:24.07 | 6:23.65 | 172807 | 201596
14 | 44:47.72 | 2:46.34 | 201597 | 214080
15 | 47:34.31 | 5:10.00 | 214081 | 237330
16 | 52:44.31 | 9:24.25 | 237331 | 279655
17 | 62:08.56 | 4:36.04 | 279656 | 300359
18 | 66:44.60 | 2:21.32 | 300360 | 310966
19 | 69:06.17 | 2:13.64 | 310967 | 321005
20 | 71:20.06 | 1:36.65 | 321006 | 328270

Характеристики диапазона извлечения и сообщения об ошибках

Выбранный диапазон

Имя файла C:\И. В. Козловский - Колядки, украинские и русские народные песни.wav

Пиковый уровень 100.0 %
Качество диапазона 99.9 %
CRC копии 60FD6472
Копирование... OK

Ошибок не произошло
Конец отчёта
Download

Войдите для скачивания торрент-файла

Как скачивать  ·   Правила трекера

[Профиль]  [ЛС] 

iarikd

Стаж: 6 лет 10 месяцев

Сообщений: 5

Russia

post 12-Янв-2011 18:31 (спустя 1 год 3 месяца)

[Цитировать] 

дайте пожалуйста скорости, не могу скачать!!!
[Профиль]  [ЛС] 

vsizop

post 09-Авг-2011 00:10 (спустя 6 месяцев)

[Цитировать] 

Поддерживаю, сид выходи...
 
Показать сообщения:    
Ответить на тему

Текущее время: 03-Дек 19:39

Часовой пояс: GMT + 4



Вы не можете начинать темы
Вы не можете отвечать на сообщения
Вы не можете редактировать свои сообщения
Вы не можете удалять свои сообщения
Вы не можете голосовать в опросах
Вы не можете прикреплять файлы к сообщениям
Вы не можете скачивать файлы