Loading...
Error

(Духовные песнопения) Юлия Юрик / К Тебе, святитель - 2008, FLAC (image + .cue), lossless

Ответить на тему
Статистика раздачи
Скачали: [ 3 ]
   
 
Автор Сообщение

AMG

Стаж: 7 лет 4 месяца

Сообщений: 67

Откуда: Санкт-Петербург

Russia

post 30-Ноя-2010 00:40

[Цитировать] 

Юлия Юрик / К Тебе, святитель

pic
Страна: Россия
Жанр: Духовные песнопения
Год выпуска: 2008
Формат: FLAC (image + .cue)
Битрейт аудио: lossless
Продолжительность: 73:28
Трэклист:
1 Глянь, Задонск уж вот он
2 К Тебе, святитель
3 В Задонске
4 Русский Иерусалим
5 Радуйся, наш чудотворче
6 Есть обитель святая
7 В монастыре
8 Здесь тишина
9 Чудесная обитель
10 За белокаменной стеною
11 Святитель Тихон, друг небесный
12 Днесь престольный праздник
13 Святая обитель сияет
14 Монастырь - душе утешенье
15 Ликуй, Задонская обитель
16 Пастырь добрый
17 Россия, милая Россия
18 Над золотыми куполами
скрытый текст
Exact Audio Copy V0.99 prebeta 5 from 4. May 2009

Отчёт EAC об извлечении, выполненном 22. ноября 2010, 22:14

Юлия Юрик / К тебе, Святитель

Дисковод: _NEC DVD_RW ND-3540A Adapter: 1 ID: 0

Режим чтения : Достоверность
Использование точного потока : Да
Отключение кэша аудио : Да
Использование указателей C2 : Нет

Коррекция смещения при чтении : 48
Способность читать области Lead-in и Lead-out : Нет
Заполнение пропущенных сэмплов тишиной : Да
Удаление блоков с тишиной в начале и конце : Нет
При вычислениях CRC использовались нулевые сэмплы : Да
Интерфейс : Встроенный Win32-интерфейс для Win NT/2000

Выходной формат : Пользовательский кодировщик
Выбранный битрейт : 768 kBit/s
Качество : Высокий
Добавление ID3-тэга : Нет
Утилита сжатия : D:\Program Files\Exact Audio Copy\FLAC\FLAC.EXE
Дополнительные параметры : -8 -V %s -T "DATE=%y" -T "GENRE=%m"

TOC извлечённого CD

Трек | Старт | Длительность | Начальный сектор | Конечный сектор
---------------------------------------------------------------------
1 | 0:00.00 | 2:51.00 | 0 | 12824
2 | 2:51.00 | 7:27.00 | 12825 | 46349
3 | 10:18.00 | 2:48.00 | 46350 | 58949
4 | 13:06.00 | 3:57.00 | 58950 | 76724
5 | 17:03.00 | 6:19.00 | 76725 | 105149
6 | 23:22.00 | 3:09.00 | 105150 | 119324
7 | 26:31.00 | 3:35.00 | 119325 | 135449
8 | 30:06.00 | 3:35.00 | 135450 | 151574
9 | 33:41.00 | 3:38.00 | 151575 | 167924
10 | 37:19.00 | 3:57.00 | 167925 | 185699
11 | 41:16.00 | 2:59.00 | 185700 | 199124
12 | 44:15.00 | 4:50.00 | 199125 | 220874
13 | 49:05.00 | 3:21.00 | 220875 | 235949
14 | 52:26.00 | 4:26.00 | 235950 | 255899
15 | 56:52.00 | 3:31.00 | 255900 | 271724
16 | 60:23.00 | 3:03.00 | 271725 | 285449
17 | 63:26.00 | 5:34.00 | 285450 | 310499
18 | 69:00.00 | 4:26.00 | 310500 | 330449
Download

Войдите для скачивания торрент-файла

Как скачивать  ·   Правила трекера

[Профиль]  [ЛС] 

Игорь I

Стаж: 7 лет 7 месяцев

Сообщений: 1503

Russia

post 01-Дек-2010 00:08 (спустя 23 часа)

[Цитировать] 

Благодарю!
[Профиль]  [ЛС] 

Lyapko

Стаж: 7 лет

Сообщений: 1

post 20-Фев-2011 23:09 (спустя 2 месяца 19 дней)

[Цитировать] 

Здорово! Вот только почему у нас авторы-исполнители в основном женщины ( кроме разумеется о. Романа, кстати, может кто знает, как его здоровье?)
[Профиль]  [ЛС] 

РОСС

Стаж: 7 лет 6 месяцев

Сообщений: 62

Russia

post 09-Мар-2011 19:16 (спустя 16 дней)

[Цитировать] 

Спасибо!
[Профиль]  [ЛС] 

+Сергей+

Стаж: 6 лет

Сообщений: 225

Откуда: Москва

Russia

post 15-Июн-2011 16:30 (спустя 3 месяца 5 дней)

[Цитировать] 

Благодарю.
[Профиль]  [ЛС] 

Student_M

Стаж: 7 лет 1 месяц

Сообщений: 40

Greece

post 13-Мар-2012 02:04 (спустя 8 месяцев)

[Цитировать] 

Альтернатива на мп3 http://www.unibytes.com/EvfS.mgxFg8B или http://depositfiles.com/files/sp4ttepby
[Профиль]  [ЛС] 

rostik

Стаж: 7 лет 8 месяцев

Сообщений: 42

Откуда: Днепропетровск

Ukraine

post 15-Июн-2012 01:12 (спустя 3 месяца 1 день)

[Цитировать] 

Спасибо сердечное! +
[Профиль]  [ЛС] 
Показать сообщения:    
Ответить на тему

Текущее время: 07-Дек 01:51

Часовой пояс: GMT + 4



Вы не можете начинать темы
Вы не можете отвечать на сообщения
Вы не можете редактировать свои сообщения
Вы не можете удалять свои сообщения
Вы не можете голосовать в опросах
Вы не можете прикреплять файлы к сообщениям
Вы не можете скачивать файлы