Loading...
Error

(Церковная музыка и церковные хоры (lossless)) Акафист пред иконой Божией Матери «Влахернская» - 2008, APE (image + .cue)

Страницы:  1, 2  След.

Ответить на тему
Статистика раздачи
   
 
Автор Сообщение

dr.kli

Стаж: 12 лет

Сообщений: 149

Откуда: Горняк

Russia

post 16-Май-2010 13:20

[Цитировать] 

Акафист пред иконой Божией Матери «Влахернская»

pic
Страна: Россия, Спасо-Влахернский женский монастырь
Жанр: Церковная музыка и церковные хоры (lossless)
Год выпуска: 2008
Формат: APE (image + .cue)
Продолжительность: 00:45:22

Трэклист:
Иерей Александр Рожнов, клирик Спасо-Влахернского женского монастыря.
Хор Спасо-Влахернского женского монастыря, пос. Деденёво.
Регент Соболева Наталья Вадимовна.

Дополнительная информация: О многом говорит православному сердцу само имя местности в западной части Константинополя – Влахерны. Здесь, на месте убийства скифского вождя Влаха, в V веке при императоре Льве Великом была построена церковь во имя Пречистой. Именно в ней произошло знаменитое видение Богородицы Андрею Юродивому, которое мы чествуем как один из самых любимых на Руси праздников – Покров. В 474 положены были в эту же церковь и честные ризы Богородицы, принесенные из Палестины; память этого события отмечается церковью 2 июля – в престольный праздник Ризположенских церквей. Храм этот сгорел в 1434 году. Но был во Влахернах и другой богородичный храм, где находилась икона Присно Девы, сопровождавшая многих византийских императоров в их военных походах. Они всегда брали эту святыню с собою как главную свою защитницу, дабы «православное воинство ощутило себя под покровительством Божией Матери». Икона эта, получившая название Влахернской, промыслом Божиим перешла из Второго Рима в Третий и сохранилась невредимою до наших дней.
EAC log
Exact Audio Copy V0.99 prebeta 4 from 23. January 2008

Отчёт EAC об извлечении, выполненном 12. сентября 2010, 14:53

Хор Спасо-Влахернского женского монастыря / Акафист пред иконой Божией Матери "Влахернская"

Дисковод: Optiarc DVD RW AD-7240S Adapter: 2 ID: 0

Режим чтения : Достоверность
Использование точного потока : Да
Отключение кэша аудио : Нет
Использование указателей C2 : Нет

Коррекция смещения при чтении : 48
Способность читать области Lead-in и Lead-out : Да
Заполнение пропущенных сэмплов тишиной : Да
Удаление блоков с тишиной в начале и конце : Нет
При вычислениях CRC использовались нулевые сэмплы : Да
Интерфейс : Установленный внешний ASPI-интерфейс

Выходной формат : Внутренние WAV-операции
Формат сэмплов : 44.100 Гц; 16 бит; стерео

TOC извлечённого CD

Трек | Старт | Длительность | Начальный сектор | Конечный сектор
---------------------------------------------------------------------
1 | 0:00.00 | 45:22.72 | 0 | 204221

Характеристики диапазона извлечения и сообщения об ошибках

Выбранный диапазон

Имя файла E:\ПРАВОСЛАВНОЕ\МУЗЫКА\Акафист пред иконой Божьей Матери Влахенрская_2\Хор Спасо-Влахернского женского монастыря - Акафист пред иконой Божией Матери Влахернская.wav

Подозрительная позиция 0:41:42

Пиковый уровень 89.7 %
Качество диапазона 99.9 %
CRC теста 60AFF247
CRC копии 2D047558
Копирование завершено

Были ошибки

Конец отчёта
Download

Войдите на сайт, чтобы увидеть полную информацию.

Как скачивать  ·   Правила трекера



Последний раз редактировалось: dr.kli (2010-09-12 12:32), всего редактировалось 2 раз(а)
[Профиль]  [ЛС] 

сервп62

Стаж: 11 лет

Сообщений: 303

post 19-Май-2010 18:38 (спустя 3 дня)

[Цитировать] 

Уважаемый dr.kli,
может есть у Вас обложки и накатка диска, и икона с постера раздачи в разрешении 300dpi, заранее благодарен
[Профиль]  [ЛС] 

dr.kli

Стаж: 12 лет

Сообщений: 149

Откуда: Горняк

Russia

post 19-Май-2010 20:00 (спустя 1 час 22 минуты)

[Цитировать] 

Увы сервп62, обложка диска изготовлена в типографии на жуткой бумаге, изображение хуже чем изображение самой иконы. Обложку в Сети тоже не нашёл. Оно и понятно почему: тираж всего 1000 экз., похоже что преследовались некоммерческие цели.
Накатки диска тоже нет.

_________________
Спасибо Господи за всё!
[Профиль]  [ЛС] 

luibasha

post 12-Июл-2010 19:33 (спустя 1 месяц 23 дня)

[Цитировать] 

Уважаемый dr.kli
а у Вас случайно нет [текста] акафиста иконе Влахернской? не могу нигде найти...
 

dr.kli

Стаж: 12 лет

Сообщений: 149

Откуда: Горняк

Russia

post 14-Июл-2010 21:03 (спустя 2 дня 1 час)

[Цитировать] 

luibasha писал(а):

Уважаемый dr.kli
а у Вас случайно нет [текста] акафиста иконе Влахернской? не могу нигде найти...
Увы uibasha, такстового варианта у меня нет...

_________________
Спасибо Господи за всё!
[Профиль]  [ЛС] 

Manul

Стаж: 11 лет

Сообщений: 155

Ussr

post 12-Сен-2010 17:48 (спустя 1 месяц 28 дней)

[Цитировать] 

dr.kli
А с чем связана новая регистрация раздачи на трекере?
[Профиль]  [ЛС] 

dr.kli

Стаж: 12 лет

Сообщений: 149

Откуда: Горняк

Russia

post 13-Сен-2010 16:03 (спустя 22 часа)

[Цитировать] 

Manul писал(а):

dr.kli
А с чем связана новая регистрация раздачи на трекере?
По рекомендации Academic Crack измененён параметр "смещение" в настройках Exact Audio Copy. Установлено смещение для привода +48. Рип переделан.

_________________
Спасибо Господи за всё!
[Профиль]  [ЛС] 

Manul

Стаж: 11 лет

Сообщений: 155

Ussr

post 13-Сен-2010 16:30 (спустя 27 минут)

[Цитировать] 

dr.kli
А от ошибки не пробовали избавиться на другом приводе? Или нет такой возможности?
[Профиль]  [ЛС] 

dr.kli

Стаж: 12 лет

Сообщений: 149

Откуда: Горняк

Russia

post 13-Сен-2010 18:28 (спустя 1 час 57 минут)

[Цитировать] 

Manul
Как возможно исправить ошибку на другом приводе?

При создании первого и второго рипа использовался один и тоже привод, но настойки Exact Audio Copy в параметре смещения были для первого не установлены (я о них не знал), а сейчас изменил настройки, изменил рип и перезалил.

_________________
Спасибо Господи за всё!
[Профиль]  [ЛС] 

Manul

Стаж: 11 лет

Сообщений: 155

Ussr

post 13-Сен-2010 19:36 (спустя 1 час 7 минут)

[Цитировать] 

dr.kli

Цитата:

Подозрительная позиция 0:41:42

Пиковый уровень 89.7 %
Качество диапазона 99.9 %
CRC теста 60AFF247
CRC копии 2D047558
Это похоже на плохо читаемый участок диска. Возможно, что другие привода смогут прочесть это место без проблем. У меня, например, после неудач Самсунга LG справляется с чтением на "ура". Может стоит и Вам попробовать?
[Профиль]  [ЛС] 

dr.kli

Стаж: 12 лет

Сообщений: 149

Откуда: Горняк

Russia

post 16-Сен-2010 16:37 (спустя 2 дня 21 час)

[Цитировать] 

Да пожалуй попробую... Как сделаю - сообщу. Спасибо Вам за совет. Smile

_________________
Спасибо Господи за всё!
[Профиль]  [ЛС] 

dr.kli

Стаж: 12 лет

Сообщений: 149

Откуда: Горняк

Russia

post 23-Сен-2010 16:06 (спустя 6 дней)

[Цитировать] 

Manul писал(а):

dr.kli

Цитата:

Подозрительная позиция 0:41:42

Пиковый уровень 89.7 %
Качество диапазона 99.9 %
CRC теста 60AFF247
CRC копии 2D047558
Это похоже на плохо читаемый участок диска. Возможно, что другие привода смогут прочесть это место без проблем. У меня, например, после неудач Самсунга LG справляется с чтением на "ура". Может стоит и Вам попробовать?
Manul, увы не получилось улучшить рип... Другой дисковод выдал эти же параметры плохо читаемого участка.

_________________
Спасибо Господи за всё!
[Профиль]  [ЛС] 

dr.kli

Стаж: 12 лет

Сообщений: 149

Откуда: Горняк

Russia

post 24-Сен-2010 18:13 (спустя 1 день 2 часа)

[Цитировать] 

dr.kli писал(а):

Manul писал(а):

dr.kli

Цитата:

Подозрительная позиция 0:41:42

Пиковый уровень 89.7 %
Качество диапазона 99.9 %
CRC теста 60AFF247
CRC копии 2D047558
Это похоже на плохо читаемый участок диска. Возможно, что другие привода смогут прочесть это место без проблем. У меня, например, после неудач Самсунга LG справляется с чтением на "ура". Может стоит и Вам попробовать?
Manul, увы не получилось улучшить рип... Другой привод выдал эти же параметры плохо читаемого участка.
Впрочем, на этом приводе удалось улучшить другой рип - Алтай Золотой

Цитата:



Имя файла D:\МУЗЫКА\Алтай Золотой\О.Клячев, А.Власова, - Алтай Золотой.wav

Пиковый уровень 91.4 %
Качество диапазона 100.0 %
CRC теста 6980DC64
CRC копии 6980DC64
Копирование... OK

Ошибок не произошло

Конец отчёта

_________________
Спасибо Господи за всё!
[Профиль]  [ЛС] 

Manul

Стаж: 11 лет

Сообщений: 155

Ussr

post 21-Окт-2010 19:41 (спустя 27 дней)

[Цитировать] 

сервп62
Если ещё нужна икона в хорошем разрешении, то посмотрите на этой страничке pravicon.com/icon-223

dr.kli
Диск-оригинал не имеет разбивки на треки?
[Профиль]  [ЛС] 

сервп62

Стаж: 11 лет

Сообщений: 303

post 22-Окт-2010 01:15 (спустя 5 часов)

[Цитировать] 

Уважаемый Manul,
премного благодарен за ссылку, икону скачал, там еще много интересного
[Профиль]  [ЛС] 
Показать сообщения:    
Ответить на тему

Текущее время: 15-Янв 17:44

Часовой пояс: GMT + 4



Вы не можете начинать темы
Вы не можете отвечать на сообщения
Вы не можете редактировать свои сообщения
Вы не можете удалять свои сообщения
Вы не можете голосовать в опросах
Вы не можете прикреплять файлы к сообщениям
Вы не можете скачивать файлы