Loading...
Error

(Военные песни, Хоровое пение) ИПК Валаам - Песни и гимны российской императорской армии - 7 альомов APE. FLAC. lossless

Ответить на тему
Статистика раздачи
Скачали: [ 3 ]
   
 
Автор Сообщение

Semenoff

Стаж: 8 лет

Сообщений: 202

Russia

post 07-Июн-2009 19:42

[Цитировать] 

Мужской хор Института певческой культуры "Валаам"
Песни и гимны российской императорской армии
pic
Страна: Россия
Жанр: Военные песни, Хоровое пение
Формат: ape, flac
Битрейт аудио: lossless

Боже, царя храни!


pic
1. Боже, Царя Храни! (1:52)
2. Царь могучий! (2:34)
3. Взятие Казани Иоанном Грозным (2:42)
4. Радуйся, Росско Земле! (1:51)
5. Марш вперёд, голубые уланы! (2:18)
6. Мы помним дядю Коренного (4:17)
7. Орлиной песней удалою потешить рады мы (3:04)
8. Есть на Руси полки лихие! (2:21)
9. Песни гусарские лихо поются! (3:11)
10. Где друзья минувших лет? (3:04)
11. Боже, люби Царя! (1:46)
12. Песнь о вещем Олеге (2:16)
13. Мы снова надели мундиры отцов (2:20)
14. Кто не знал, не видал подвигов заветных (2:24)
15. Наполеон-то, Наполеон (2:13)
16. Славим Платова-героя! (3:35)
17. Ты возвратился, Благодатный! (3:57)
18. Не бушуйте ветры буйные (6:27)
19. "Варяг" (4:41)
20. Русский солдат (1:05)
21. Что за песни! (3:04)
22. Многолетие (1:07)

Год выпуска: 2001
Формат: flac (tracks)
Продолжительность:01:02:09
За Царя, за Русь Святую!


pic
01. Царь могучий! (2:32)
02. Споемте песню полковую! (3:07)
03. По всему Кавказу про нас слава ходит! (2:18)
04. Слава вам, герои Севера! (5:00)
05. Давно, при царе Алексии (3:31)
06. Не труба трубит (3:47)
07. Марш лейб-гвардии конной артилерии (1:23)
08. При Павле I был основан (4:01)
09. Гибель "Стерегущего" (6:25)
10. Гибель "Варяга" (6:50)
11. Ты помнишь ли, товарищ? (4:31)
12. Слава русскому царю! (1:55)
13. За Царя, за Русь Святую! (3:51)
14. Православный русский воин (2:16)
15. Взвейтесь, соколы, орлами! (5:19)
16. Спаси, Господи, люди Твоя (1:14)


Год выпуска: 2001
Формат: ape (img+cue)
Продолжительность: 00:58:08
log
Exact Audio Copy V0.99 prebeta 3 from 28. July 2007

Отчёт EAC об извлечении, выполненном 19. сентября 2007, 15:28

Мужской хор "Валаам". Дирижер И.Ушаков / За Царя, за Русь Святую!

Дисковод: TEAC DV-W516GB Adapter: 0 ID: 0

Режим чтения : Достоверность
Использование точного потока : Да
Отключение кэша аудио : Да
Использование указателей C2 : Нет

Коррекция смещения при чтении : 12
Способность читать области Lead-in и Lead-out : Нет
Заполнение пропущенных сэмплов тишиной : Да
Удаление блоков с тишиной в начале и конце : Нет
При вычислениях CRC использовались нулевые сэмплы : Да
Интерфейс : Встроенный Win32-интерфейс для Win NT/2000

Выходной формат : Внутренние WAV-операции
Формат сэмплов : 44.100 Гц; 16 бит; стерео

TOC извлечённого CD

Трек | Старт | Длительность | Начальный сектор | Конечный сектор
---------------------------------------------------------------------
1 | 0:00.00 | 2:32.05 | 0 | 11404
2 | 2:32.05 | 3:07.51 | 11405 | 25480
3 | 5:39.56 | 2:18.71 | 25481 | 35901
4 | 7:58.52 | 5:00.69 | 35902 | 58470
5 | 12:59.46 | 3:31.54 | 58471 | 74349
6 | 16:31.25 | 3:47.16 | 74350 | 91390
7 | 20:18.41 | 1:23.13 | 91391 | 97628
8 | 21:41.54 | 4:01.41 | 97629 | 115744
9 | 25:43.20 | 6:25.03 | 115745 | 144622
10 | 32:08.23 | 6:50.09 | 144623 | 175381
11 | 38:58.32 | 4:31.69 | 175382 | 195775
12 | 43:30.26 | 1:55.57 | 195776 | 204457
13 | 45:26.08 | 3:51.60 | 204458 | 221842
14 | 49:17.68 | 2:16.71 | 221843 | 232113
15 | 51:34.64 | 5:19.69 | 232114 | 256107
16 | 56:54.58 | 1:14.09 | 256108 | 261666

Характеристики диапазона извлечения и сообщения об ошибках

Выбранный диапазон

Имя файла G:\[Lossless]\За Царя, за Русь Святую!\Мужской хор Валаам . Дирижер И.Ушаков - За Царя, за Русь Святую!.wav

Пиковый уровень 93.6 %
Качество диапазона 100.0 %
CRC копии 06167BCC
Копирование... OK

Ошибок не произошло

Конец отчёта
Легендарный Севастополь. К 150-летию Восточной (Крымской) войны
pic
1. Легендарный Севастополь (4:06)
2. Казаки идут на бой (1853 год) (1:04)
3. Под Баяндуром в битву мы ходили (2 ноября 1853 года) (2:22)
4. За высокими горами, между быстрыми реками Ахалцых стоит (14 ноября 1853 года) (1:50)
5. Синопский бой (3:03)
6. Целый месяц с штаб-квартиры все вели нас командиры (19 ноября 1853 года) (2:51)
7. В бой с союзницами Турции (март 1854 года) (2:59)
8. Станем, братцы, в круговую, грянем песню удалую (4 июня 1854 года) (2:37)
9. Вот француз у турка в службе, англичанин с ними в дружбе (1854 года) (4:32)
10. С нами Бог, ура, ребята - царства белого орлы (23 июля 1854 года) (6:02)
11. Солдатская песня о Севастополе (4:24)
12. Русские солдаты и офицеры в Севастополе (2:04)
13. Вспомним, братцы, день тот славный (6 июня 1855 года) (3:26)
14. Адмирал Нахимов в Севастополе (1:30)
15. Любезный друг, уведомляю (5:33)
16. Жизни тот одни достоин, кто на смерть всегда готов (2:18)
17. Что не вороны чернееют (1855) (2:58)
18. Вот полночь наступает, луна горит светло (16 ноября 1855 года) (2:18)
19. Где вы, соколы белые, черноморцы-молодцы (1:34
20. Севастопольское братское кладбище (6:02)

Год выпуска: 2004
Формат: ape (img+cue)
Продолжительность:01:03:33

Оборона Севастополя вошла во всемирную историю как символ беспримерной стойкости, мужества русского народа. В продолжение более чем 11 месяцев русские солдаты и моряки в борьбе с численно превосходящими силами противника отстаивали Севастополь. Город, объявленный на осадном положении и, не имея подготовленной обороны с суши, оказался под ударом англо-французских войск и флота.
Песенная летопись Кавказской войны


pic
1. Генерал Ермолов на Кавказе (1818 г.) - Русская солдатская песня
2. Пыль клубится по дороге - Песня 1-го Кизляро-Гребенского полка Терского войска
3. Ты прощай, моя милая - Песня 1-го эскадрона Кавалергадского полка
4. Подвиг Архипа Осипова (22 марта 1840 г.) - Песня 77-го Пехотного Тенгинского полка
5. Зирянское сидение (18 ноября-17 декабря 1843 г. ) - Песня Апшеронского Пехотного полка
6. Дело под Андреевской деревней (23 апр. 1844 г.) - Песня 80-го Пехотного Кабардинского полка
7. Экспедиция на Андию ("Сухарная экспедиция" 31 мая - 20 июля 1845 г.) - Солдатская песня Отряда графа М. Воронцова
8. Вторжение Шамиля в Кабарду (1846 г.) - Песня Кабардинского Егерского полка
9. Взятие аула Салты (14 сент. 1847 г.) - Солдатская песня Отряда Князя Аргутинского-Долгорукого
10. Разорение аула Хупро (август 1849 г.) - Солдатская песня Отряда генерала Чиляева
11. Казаки Бакланова на Кавказе (1850 г.) - Казачья песня
12. Штурм аула Алты-Буюн (8 апреля 1851 г.) - Песня 1-го эскадрона 17-го Драгунского Нижегородского полка
13. На реках Шавдоне и Басе (1851 г.) - Песня 17-го Драгунского Нижегородского полка
14. Экспедиция в ущелье реки Гойты (18 января 1852 г.) - Песня 79-го Пехотного Куринского полка
15. Взятие аулов Автуры и Гельдыген (6-7 января 1852 г.) - Песня 79-го Пехотного Куринского полка
16. На горы улегся туман - Русская солдатская песня
17. Занятие Аргунского ущелья (1858 г.) - Песня 79-го Пехотного Куринского полка
18. Взятие Гуниба (25 августа 1859 г.) - Песня 84-го Пехотного Ширванского полка
19. Покорение Чечни (апрель 1859 г.) - Русская солдатская песня
20. Покорение "Дидойского Общества" (29 июля 1859 г.) - Солдатская песня Отряда генерала Чиляева
21. Там, где волны Аракса шумят ("Пограничная") - Русская солдатская песня
22. Было дело на Кавказе - Русская солдатская песня
23. Терские казаки (Песня Терского казачества)

Год выпуска: 2002
Формат: ape (img+cue)
Продолжительность: 01:16:54
log
Exact Audio Copy V0.99 prebeta 3 from 28. July 2007

Отчёт EAC об извлечении, выполненном 28. сентября 2007, 3:18

9099 / unknown

Дисковод: TEAC DV-W516GB Adapter: 0 ID: 0

Режим чтения : Достоверность
Использование точного потока : Да
Отключение кэша аудио : Да
Использование указателей C2 : Нет

Коррекция смещения при чтении : 12
Способность читать области Lead-in и Lead-out : Нет
Заполнение пропущенных сэмплов тишиной : Да
Удаление блоков с тишиной в начале и конце : Нет
При вычислениях CRC использовались нулевые сэмплы : Да
Интерфейс : Встроенный Win32-интерфейс для Win NT/2000

Выходной формат : Внутренние WAV-операции
Формат сэмплов : 44.100 Гц; 16 бит; стерео

TOC извлечённого CD

Трек | Старт | Длительность | Начальный сектор | Конечный сектор
---------------------------------------------------------------------
1 | 0:00.00 | 2:22.28 | 0 | 10677
2 | 2:22.28 | 2:56.67 | 10678 | 23944
3 | 5:19.20 | 1:22.70 | 23945 | 30164
4 | 6:42.15 | 4:19.10 | 30165 | 49599
5 | 11:01.25 | 5:03.31 | 49600 | 72355
6 | 16:04.56 | 4:28.53 | 72356 | 92508
7 | 20:33.34 | 3:11.58 | 92509 | 106891
8 | 23:45.17 | 3:17.48 | 106892 | 121714
9 | 27:02.65 | 1:53.06 | 121715 | 130195
10 | 28:55.71 | 5:40.36 | 130196 | 155731
11 | 34:36.32 | 2:43.05 | 155732 | 167961
12 | 37:19.37 | 3:41.07 | 167962 | 184543
13 | 41:00.44 | 3:33.56 | 184544 | 200574
14 | 44:34.25 | 2:46.01 | 200575 | 213025
15 | 47:20.26 | 1:47.56 | 213026 | 221106
16 | 49:08.07 | 6:14.16 | 221107 | 249172
17 | 55:22.23 | 3:29.33 | 249173 | 264880
18 | 58:51.56 | 3:20.40 | 264881 | 279920
19 | 62:12.21 | 2:07.39 | 279921 | 289484
20 | 64:19.60 | 4:14.66 | 289485 | 308600
21 | 68:34.51 | 2:44.19 | 308601 | 320919
22 | 71:18.70 | 3:11.25 | 320920 | 335269
23 | 74:30.20 | 2:24.07 | 335270 | 346076

Характеристики диапазона извлечения и сообщения об ошибках

Выбранный диапазон

Имя файла G:\[Lossless]\Валаам ИПК [lossles]\kavkaz\9099 - unknown.wav

Пиковый уровень 95.7 %
Качество диапазона 99.9 %
CRC копии 13ACE7B3
Копирование... OK

Ошибок не произошло

Конец отчёта
Песни и гимны российской императорской армии


pic
1. Боже, Царя Храни (1:52)
2. Коль Славен (3:51)
3. Многие Лета Православный Русский Царь (1:33)
4. Царь Могучий (Гимн русскому царю) (2:20)
5. Марш Павловского Военного Училища (2:01)
6. Марш Преображенского Полка (2:15)
7. Песнь О Вещем Олеге (2:31)
8. Эй, Донцы-Молодцы (3:47)
9. Ночь Темна Была (5:04)
10. Наполеон-то, Наполеон (2:02)
11. Славим Платова Героя (2:06)
12. Гибель "Варяга" (7:12)
13. Песня 12-ой Кавалерийской Дивизии (2:24)
14. Песня 12-го Драгунского Стародубовского Полка (2:54)
15. Песня 5-го Гусарского Александрийского Полка (2:47)
16. Гимн Великого Войска Донского (3:34)
17. Песня Конно-Гренадерского Полка (1:47)
18. Песня 10-го Уланского Одесского Полка (2:28)
19. Гибель "Стерегущего" (6:05)
20. Мы Смело В Бой Пойдем (6:40)
21. Боже, Спаси Родную Русь (4:02)

Год выпуска: 1996
Формат: ape (img+cue)
Продолжительность: 69:23
log
Exact Audio Copy V0.99 prebeta 3 from 28. July 2007

Отчёт EAC об извлечении, выполненном 28. сентября 2007, 4:36

Мужской хор Санкт-Петербургского Подворья Спасо-Преображенского Валаамского Ставропигиального Монастыря / Песни и гимны Армии Российской Империи

Дисковод: TEAC DV-W516GB Adapter: 0 ID: 0

Режим чтения : Достоверность
Использование точного потока : Да
Отключение кэша аудио : Да
Использование указателей C2 : Нет

Коррекция смещения при чтении : 12
Способность читать области Lead-in и Lead-out : Нет
Заполнение пропущенных сэмплов тишиной : Да
Удаление блоков с тишиной в начале и конце : Нет
При вычислениях CRC использовались нулевые сэмплы : Да
Интерфейс : Встроенный Win32-интерфейс для Win NT/2000

Выходной формат : Внутренние WAV-операции
Формат сэмплов : 44.100 Гц; 16 бит; стерео

TOC извлечённого CD

Трек | Старт | Длительность | Начальный сектор | Конечный сектор
---------------------------------------------------------------------
1 | 0:00.30 | 1:52.68 | 30 | 8497
2 | 1:53.23 | 3:51.15 | 8498 | 25837
3 | 5:44.38 | 1:33.22 | 25838 | 32834
4 | 7:17.60 | 2:20.25 | 32835 | 43359
5 | 9:38.10 | 2:01.13 | 43360 | 52447
6 | 11:39.23 | 2:15.07 | 52448 | 62579
7 | 13:54.30 | 2:31.23 | 62580 | 73927
8 | 16:25.53 | 3:47.32 | 73928 | 90984
9 | 20:13.10 | 5:04.63 | 90985 | 113847
10 | 25:17.73 | 2:02.62 | 113848 | 123059
11 | 27:20.60 | 2:06.25 | 123060 | 132534
12 | 29:27.10 | 7:12.60 | 132535 | 164994
13 | 36:39.70 | 2:23.73 | 164995 | 175792
14 | 39:03.68 | 2:54.37 | 175793 | 188879
15 | 41:58.30 | 2:47.13 | 188880 | 201417
16 | 44:45.43 | 3:34.17 | 201418 | 217484
17 | 48:19.60 | 1:47.20 | 217485 | 225529
18 | 50:07.05 | 2:28.43 | 225530 | 236672
19 | 52:35.48 | 6:05.30 | 236673 | 264077
20 | 58:41.03 | 6:40.17 | 264078 | 294094
21 | 65:21.20 | 4:02.08 | 294095 | 312252

Характеристики диапазона извлечения и сообщения об ошибках

Выбранный диапазон

Имя файла G:\[Lossless]\Валаам ИПК [lossles]\Валаам - Боже, царя храни!\Боже, царя храни!.wav

Пиковый уровень 82.5 %
Качество диапазона 100.0 %
CRC копии 4E093424
Копирование... OK

Ошибок не произошло

Конец отчёта
Слава Матушке России!


pic
1.Песнь о вещем Олеге (Напев Д. Дольского)
2.Полтавский бой /1709 г./ (Стихи И. Молчанова)
3.Хоть Москва в руках французов (Русская солдатская песня)
4.Славим Платова - героя! (Русская нар. песня времено Отечественной войны 1812 г.)
5.Разоренная дорожка (Русская нар. песня времен Отечественной войны 1812 г.)
6.Эй, донцы-молодцы! (Русская нар. песня времен Отечественной войны 1812 г.)
7.При Павле Первом был основан (Песня Лейб-Гвардии Казачьего полка)
8.В семьдесят седьмом году (Песня Лейб-Гвардии Павловского полка)
9.Ты скажи, моя Марусенька (Песня Лейб-Гвардии Московского полка)
10.Вороные кони рвутся (Песня Лейб-Гвардии Конно-Гренадерского полка)
11.Слышно, бьют тревогу (Песня 57-го Пехотного Модлинского полка)
12.Не страшна нам смерть в боях! (Русская солдатская песня)
13.Русского солдата знает целый свет! (Русская солдатская песня)
14.После учения (Русская солдатская песня)
15.Соловей, соловей, пташечка! (Русская солдатская песня)
16.Оружием на солнце сверкая (Гусарская песня)
17.Возвращался не с парада (Песня 2-го эскадрона 17-го Драгунского Нижегородского полка)
18.Эскадрон драгун идет (Песня 6-го эскадрона 17-го Драгунского Нижегородского полка)
19.Споемте, братцы, про победы! (Песян 115-го Пехотного Вяземского полка)
20.Русское "Ура!" (Стихи А. Кольцова. Музыка В. Чуркина)
21.Ура Царю - Отцу России (Песня 9-го Драгунского Казанского полка)
22.Слава Матушке-России! (Русская солдатская песня)
23.Что за песни! (Русская хвалебная песнь)

Год выпуска: 2003
Формат: flac (img+cue)
Продолжительность: 69 мин
log
Отчёт EAC об извлечении, выполненном 27. июня 2008, 10:24 для диска:
Хор 'Валаам' / Слава Матушке-России!

Дисковод: _NEC DV-5800D Adapter: 1 ID: 0
Режим чтения: Точный (C2: нет, Точный поток: да, Отключение кэша: да)
Коррекция смещения при чтении: 12
Экстрачтение областей Lead-in и Lead-out : Нет

Выходной формат: Внутренние WAV-операции
44.100 Гц; 16 бит; стерео

Другие параметры:
Заполнение пропущенных сэмплов тишиной : Да
Удаление блоков с тишиной в начале и конце : Нет
'Родной' Win32-интерфейс для Win NT/2000

Статус диапазона и ошибки
Выбранный диапазон
Имя файла G:\CDImage.wav

Пиковый уровень 97.7 %
Качество диапазона 100.0 %
CRC EB763791
Копирование... OK

Ошибок не произошло

Конец отчёта
Тернистый путь борьбы и муки. Песни белого движения и русского зарубежья


pic
01.Пусть свищут пули,льётся кровь!(марш Алексеевского полка)
02.Пусть вокруг одно глумленье,клевета и гнёт!(Марш Корниловского полка)
03.Из Румынии походом шёл Дроздовский славный полк.(Марш Дроздовского полка)
04.О,Боже Правый, изнывает под гнётом Русь-спаси Её!(Песня Дроздовского полка)
05.Смело вперёд,за Отчизну Святую!(Песня Марковского полка)
06.Мы-дети России Великой!(Песня Добровольческих частей)
07.Мы смело в бой пойдём!(Песня Белого движения времён Гражданской Войны)
08.Всколыхнулся,взволновался православный Тихий Дон.(Гимн Всевеликого Войска Донского)
09.Споём про Дон,Кубань и Терек!(Песня Сводного имени генерала Каледина полка)
10.Друзья,не бойтесь клеветы!(Донской Гимн времён Гражданской Войны)
11.Не для меня реки текут.(Дальневосточная)
12.Спите,орлы боевые.(К.ОленинИ.Корнилов)
13.В Церкви.(П.Чайковский Ор.39,№24)
14.Маршируют полки.(С.Войно-ПанченкоС.Марков)
15.Мы идём широкими полями!(А.ФроловМ.Давыдов Марш Российской Освободительной Армии 1944г.)
16.Мы-поколенье суровых людей!(П.Зеленский Марш нового поколения)
17.Мы-Витязи славной России!(Н.ФёдоровП. Волошин Гимн Национальной Организации Витязи Франция)
18.Родимый край.(О,Русь,Родимый край заветный,умрём мы за тебя!)

Год выпуска: 2004
Формат: flac (img+cue)
Продолжительность: 67:07

Можно много в чем упрекать первых руководителей Белого движения, особенно политиков, далеко не сразу изживших свой феврализм или вообще не изживших его. Можно упрекать и военачальников, не всегда принимавших верные решения. Но невозможно отрицать жертвенный подвиг белых добровольцев, которому посвящена первая награда Белого движения: меч в терновом венце, наглядно выражающий суть русского христолюбивого воинства в годину лишений и смуты.
Download

Войдите для скачивания торрент-файла

Как скачивать  ·   Правила трекера

[Профиль]  [ЛС] 

сервп62

Стаж: 7 лет 9 месяцев

Сообщений: 303

post 11-Июн-2009 00:55 (спустя 3 дня)

[Цитировать] 

можно добавить скорости
[Профиль]  [ЛС] 

ssb1981

post 28-Апр-2010 22:20 (спустя 10 месяцев)

[Цитировать] 

Пожалуйста, дайте докачать. Crying or Very sad Crying or Very sad Question Question
 

Dimanus

Стаж: 6 лет 1 месяц

Сообщений: 1

Russia

post 17-Окт-2010 14:28 (спустя 5 месяцев 18 дней)

[Цитировать] 

Спасибо за раздачу!
[Профиль]  [ЛС] 

+Сергей+

Стаж: 5 лет 11 месяцев

Сообщений: 225

Откуда: Москва

Russia

post 15-Июн-2011 16:33 (спустя 7 месяцев)

[Цитировать] 

Спасибо.
[Профиль]  [ЛС] 

Yevgenijz

Стаж: 4 года 9 месяцев

Сообщений: 2

Russia

post 12-Фев-2012 11:32 (спустя 7 месяцев)

[Цитировать] 

Цитата:

15.Мы идём широкими полями!(А.ФроловМ.Давыдов Марш Российской Освободительной Армии 1944г.)
А вот это конкретно, как я понимаю, власовцы, которые за Гитлера воевали.
[Профиль]  [ЛС] 

Kostja

Стаж: 4 года 5 месяцев

Сообщений: 10

post 26-Дек-2012 15:42 (спустя 10 месяцев)

[Цитировать] 

Где раздающие?
Дайте кто-нибудь скачать, пожалуйста...
[Профиль]  [ЛС] 

Kostja

Стаж: 4 года 5 месяцев

Сообщений: 10

post 26-Дек-2012 16:29 (спустя 46 минут)

[Цитировать] 

Спаси Бог!
[Профиль]  [ЛС] 

Flesh1993

Стаж: 3 года 2 месяца

Сообщений: 3

Откуда: Москва

Russia

post 11-Сен-2013 23:26 (спустя 8 месяцев)

[Цитировать] 

Раздайте пожалуйста..
[Профиль]  [ЛС] 
Показать сообщения:    
Ответить на тему

Текущее время: 03-Дек 06:29

Часовой пояс: GMT + 4



Вы не можете начинать темы
Вы не можете отвечать на сообщения
Вы не можете редактировать свои сообщения
Вы не можете удалять свои сообщения
Вы не можете голосовать в опросах
Вы не можете прикреплять файлы к сообщениям
Вы не можете скачивать файлы