Loading...
Error

(Церковная музыка и церковные хоры (lossless)) "Песнопения Всенощного Бдения и Божественной Литургии". Хор под управлением Петра Спасского. Париж. - 2007, AРЕ (image + .cue), lossless

Ответить на тему
Статистика раздачи
no
   
 
Автор Сообщение

СЕРГУЛЕТ

Стаж: 8 лет 3 месяца

Сообщений: 2639

Откуда: LA ROMANA

Dominicanrep

post 05-Окт-2009 15:17

[Цитировать] 

"Песнопения Всенощного Бдения и Божественной Литургии". Хор под управлением Петра Спасского. Париж.

pic
Страна: Россия. "MAXclassic & Company".
Жанр: Церковная музыка и церковные хоры (lossless)
Год выпуска: 2007
Формат: AРЕ (image + .cue)
Битрейт аудио: lossless
Продолжительность: 00:49:32
Содержание+Обложки
picpicpic
EAC log
Exact Audio Copy V0.99 prebeta 5 from 4. May 2009

Отчёт EAC об извлечении, выполненном 5. октября 2009, 8:22

Russian Orthodox Cathedral Choir of Paris / Russian Sacred Choral Masterpieces

Дисковод: ASUS BC-1205PT Adapter: 1 ID: 0

Режим чтения : Достоверность
Использование точного потока : Да
Отключение кэша аудио : Да
Использование указателей C2 : Нет

Коррекция смещения при чтении : 667
Способность читать области Lead-in и Lead-out : Нет
Заполнение пропущенных сэмплов тишиной : Да
Удаление блоков с тишиной в начале и конце : Нет
При вычислениях CRC использовались нулевые сэмплы : Да
Интерфейс : Встроенный Win32-интерфейс для Win NT/2000

Выходной формат : Внутренние WAV-операции
Формат сэмплов : 44.100 Гц; 16 бит; стерео

TOC извлечённого CD

Трек | Старт | Длительность | Начальный сектор | Конечный сектор
---------------------------------------------------------------------
1 | 0:00.00 | 2:26.62 | 0 | 11011
2 | 2:26.62 | 3:36.20 | 11012 | 27231
3 | 6:03.07 | 1:57.13 | 27232 | 36019
4 | 8:00.20 | 1:40.12 | 36020 | 43531
5 | 9:40.32 | 2:30.35 | 43532 | 54816
6 | 12:10.67 | 1:51.13 | 54817 | 63154
7 | 14:02.05 | 2:42.12 | 63155 | 75316
8 | 16:44.17 | 4:08.65 | 75317 | 93981
9 | 20:53.07 | 1:42.43 | 93982 | 101674
10 | 22:35.50 | 0:49.45 | 101675 | 105394
11 | 23:25.20 | 1:53.70 | 105395 | 113939
12 | 25:19.15 | 3:41.35 | 113940 | 130549
13 | 29:00.50 | 5:56.27 | 130550 | 157276
14 | 34:57.02 | 1:06.60 | 157277 | 162286
15 | 36:03.62 | 2:37.13 | 162287 | 174074
16 | 38:41.00 | 1:30.65 | 174075 | 180889
17 | 40:11.65 | 2:23.14 | 180890 | 191628
18 | 42:35.04 | 4:37.47 | 191629 | 212450
19 | 47:12.51 | 2:17.50 | 212451 | 222775

Характеристики диапазона извлечения и сообщения об ошибках

Выбранный диапазон

Имя файла C:\Russian Orthodox Cathedral Choir of Paris - Russian Sacred Choral Masterpieces.wav

Пиковый уровень 98.8 %
Качество диапазона 99.9 %
CRC копии 6035DAF3
Копирование... OK

Ошибок не произошло
Конец отчёта
Download

Войдите для скачивания торрент-файла

Как скачивать  ·   Правила трекера



Последний раз редактировалось: СЕРГУЛЕТ (2010-08-02 06:18), всего редактировалось 2 раз(а)
[Профиль]  [ЛС] 

Игорь I

Стаж: 8 лет

Сообщений: 1580

Russia

post 02-Авг-2010 21:03 (спустя 9 месяцев)

[Цитировать] 

Благодарю
[Профиль]  [ЛС] 

sinner7

Стаж: 6 лет 11 месяцев

Сообщений: 242

post 13-Окт-2010 22:28 (спустя 2 месяца 11 дней)

[Цитировать] 

Благодарю!
[Профиль]  [ЛС] 

sashapravtorru

Стаж: 1 год 8 месяцев

Сообщений: 3

Russia

post 18-Мар-2016 23:16 (спустя 5 лет 5 месяцев)

[Цитировать] 

торрент не заливается и не открывается. Проверьте, пожалуйста, и восстановите, если можете
[Профиль]  [ЛС] 
Показать сообщения:    
Ответить на тему

Текущее время: 25-Май 10:55

Часовой пояс: GMT + 4



Вы не можете начинать темы
Вы не можете отвечать на сообщения
Вы не можете редактировать свои сообщения
Вы не можете удалять свои сообщения
Вы не можете голосовать в опросах
Вы не можете прикреплять файлы к сообщениям
Вы не можете скачивать файлы