Loading...
Error

(Авторская песня) "Нам сердце поёт о России..." Духовные песни иеромонаха Иосифа - 2006, APE (image + .cue), lossless

Ответить на тему
Статистика раздачи
Скачали: [ 4 ]
   
 
Автор Сообщение

Владислав

post 31-Окт-2009 21:05

[Цитировать] 

"Нам сердце поёт о России..." Духовные песни иеромонаха Иосифа

pic
Страна: Россия
Жанр: Авторская песня
Год выпуска: 2006
Формат: APE (image + .cue)
Битрейт аудио: lossless
Продолжительность: 76:00.56
Трэклист:
Артист: Иеромонах Иосиф
Альбом: Нам сердце поёт о России...
==========================================
01 - Иеромонах Иосиф - Вот в небе по воле Господней...
02 - Иеромонах Иосиф - Как бывает душа хороша...
03 - Иеромонах Иосиф - Пред любовию Христа.
04 - Иеромонах Иосиф - Когда креста нести нет мочи...
05 - Иеромонах Иосиф - Жених в полунощи грядет...
06 - Иеромонах Иосиф - Сквозь свет листвы...
07 - Иеромонах Иосиф - Нам сердце поёт о России...
08 - Иеромонах Иосиф - Святая ночь благоухала...
09 - Иеромонах Иосиф - Вот моя музыка...
10 - Иеромонах Иосиф - О,если б совесть уберечь...
11 - Иеромонах Иосиф - Научи меня,Боже,любить...
12 - Иеромонах Иосиф - Добрый ангел
13 - Иеромонах Иосиф - Не забывай...
14 - Иеромонах Иосиф - Из всех молитв...
15 - Иеромонах Иосиф - Над нами Бог...
16 - Иеромонах Иосиф - Боже,зри моё смиренье...
17 - Иеромонах Иосиф - Прежде чем время...
18 - Иеромонах Иосиф - Мама
19 - Иеромонах Иосиф - Сочельник
20 - Иеромонах Иосиф - В море лебеди плавают...
21 - Иеромонах Иосиф - Крылатые ангелы...
22 - Иеромонах Иосиф - Под Благовещение
EAC log
Exact Audio Copy V0.99 prebeta 5 from 4. May 2009

Exact Audio Copy V0.99 prebeta 5 from 4. May 2009

Отчёт EAC об извлечении, выполненном 31. октября 2009, 19:08

Иеромонах Иосиф / Нам сердце поёт о России...

Дисковод: Optiarc DVD RW AD-7191S Adapter: 4 ID: 0

Режим чтения : Достоверность
Использование точного потока : Да
Отключение кэша аудио : Да
Использование указателей C2 : Нет

Коррекция смещения при чтении : 6
Способность читать области Lead-in и Lead-out : Нет
Заполнение пропущенных сэмплов тишиной : Да
Удаление блоков с тишиной в начале и конце : Нет
При вычислениях CRC использовались нулевые сэмплы : Да
Интерфейс : Установленный внешний ASPI-интерфейс

Выходной формат : Внутренние WAV-операции
Формат сэмплов : 44.100 Гц; 16 бит; стерео

TOC извлечённого CD

Трек | Старт | Длительность | Начальный сектор | Конечный сектор
---------------------------------------------------------------------
1 | 0:00.00 | 4:04.21 | 0 | 18320
2 | 4:04.21 | 2:21.55 | 18321 | 28950
3 | 6:26.01 | 4:13.57 | 28951 | 47982
4 | 10:39.58 | 3:02.30 | 47983 | 61662
5 | 13:42.13 | 3:18.72 | 61663 | 76584
6 | 17:01.10 | 4:00.38 | 76585 | 94622
7 | 21:01.48 | 2:35.52 | 94623 | 106299
8 | 23:37.25 | 4:09.12 | 106300 | 124986
9 | 27:46.37 | 2:51.08 | 124987 | 137819
10 | 30:37.45 | 3:03.22 | 137820 | 151566
11 | 33:40.67 | 3:18.66 | 151567 | 166482
12 | 36:59.58 | 2:18.59 | 166483 | 176891
13 | 39:18.42 | 5:33.15 | 176892 | 201881
14 | 44:51.57 | 4:23.59 | 201882 | 221665
15 | 49:15.41 | 3:50.41 | 221666 | 238956
16 | 53:06.07 | 3:06.00 | 238957 | 252906
17 | 56:12.07 | 3:55.19 | 252907 | 270550
18 | 60:07.26 | 2:28.50 | 270551 | 281700
19 | 62:36.01 | 3:30.36 | 281701 | 297486
20 | 66:06.37 | 3:27.29 | 297487 | 313040
21 | 69:33.66 | 6:26.65 | 313041 | 342055
22 | 76:00.56 | 3:55.37 | 342056 | 359717

Характеристики диапазона извлечения и сообщения об ошибках

Выбранный диапазон

Имя файла D:\Музыка православная\Иеромонах Иосиф\Иеромонах Иосиф - Нам сердце поёт о России....wav

Пиковый уровень 100.0 %
Качество диапазона 100.0 %
CRC копии 120952FA
Копирование... OK

Ошибок не произошло

AccurateRip: сводка
Трек 1 нет в базе данных
Трек 2 нет в базе данных
Трек 3 нет в базе данных
Трек 4 нет в базе данных
Трек 5 нет в базе данных
Трек 6 нет в базе данных
Трек 7 нет в базе данных
Трек 8 нет в базе данных
Трек 9 нет в базе данных
Трек 10 нет в базе данных
Трек 11 нет в базе данных
Трек 12 нет в базе данных
Трек 13 нет в базе данных
Трек 14 нет в базе данных
Трек 15 нет в базе данных
Трек 16 нет в базе данных
Трек 17 нет в базе данных
Трек 18 нет в базе данных
Трек 19 нет в базе данных
Трек 20 нет в базе данных
Трек 21 нет в базе данных
Трек 22 нет в базе данных
Ни одного трека нет в базе AccurateRip

Конец отчёта
Download

Войдите для скачивания торрент-файла

Как скачивать  ·   Правила трекера

 

Student_M

Стаж: 7 лет 1 месяц

Сообщений: 40

Greece

post 06-Май-2010 15:36 (спустя 6 месяцев)

[Цитировать] 

Хорошие исполнение. Особенно первая песня нравится... Спасибо раздающим!
[Профиль]  [ЛС] 

Михал

Стаж: 7 лет

Сообщений: 22

Russia

post 14-Май-2010 16:23 (спустя 8 дней)

[Цитировать] 

76 часов ???
[Профиль]  [ЛС] 

sergicus

Стаж: 4 года 5 месяцев

Сообщений: 1

post 30-Июн-2012 21:35 (спустя 2 года 1 месяц)

[Цитировать] 

а есть ли у кого другие его песни?
[Профиль]  [ЛС] 

EL_O

Стаж: 4 года 5 месяцев

Сообщений: 1

Russia

post 01-Сен-2012 00:23 (спустя 2 месяца 1 день)

[Цитировать] 

Благодарю! В связи с отсутствием этого диска в продаже, особо благодарю раздающих!
[Профиль]  [ЛС] 
Показать сообщения:    
Ответить на тему

Текущее время: 11-Дек 00:25

Часовой пояс: GMT + 4



Вы не можете начинать темы
Вы не можете отвечать на сообщения
Вы не можете редактировать свои сообщения
Вы не можете удалять свои сообщения
Вы не можете голосовать в опросах
Вы не можете прикреплять файлы к сообщениям
Вы не можете скачивать файлы