Loading...
Error

(Авторская песня) Светлана Копылова "И молится сама душа моя" - 2006, APE (image + .cue), lossless

Ответить на тему
Статистика раздачи
Скачали: [ 5 ]
   
 
Автор Сообщение

Владислав

post 02-Ноя-2009 21:09

[Цитировать] 

Светлана Копылова "И молится сама душа моя"

pic
Страна: Россия
Жанр: Авторская песня
Год выпуска: 2006
Формат: APE (image + .cue)
Битрейт аудио: lossless
Продолжительность: 60:08
Трэклист:
Артист: Светлана Копылова
Альбом: И молится сама душа моя
==========================================
01 - Светлана Копылова - Русская земля 4:33
02 - Светлана Копылова - Севастийская дружина 4:51
03 - Светлана Копылова - Божий человек 7:21
04 - Светлана Копылова - Две Марии 5:57
05 - Светлана Копылова - Грузинская баллада 8:22
06 - Светлана Копылова - Вратарница 4:45
07 - Светлана Копылова - Печальник Земли Русской 24:15
EAC log
Exact Audio Copy V0.99 prebeta 5 from 4. May 2009

Exact Audio Copy V0.99 prebeta 5 from 4. May 2009

Отчёт EAC об извлечении, выполненном 2. ноября 2009, 19:21

Светлана Копылова / И молится сама душа моя

Дисковод: Optiarc DVD RW AD-7191S Adapter: 4 ID: 0

Режим чтения : Достоверность
Использование точного потока : Да
Отключение кэша аудио : Да
Использование указателей C2 : Нет

Коррекция смещения при чтении : 6
Способность читать области Lead-in и Lead-out : Нет
Заполнение пропущенных сэмплов тишиной : Да
Удаление блоков с тишиной в начале и конце : Нет
При вычислениях CRC использовались нулевые сэмплы : Да
Интерфейс : Установленный внешний ASPI-интерфейс

Выходной формат : Внутренние WAV-операции
Формат сэмплов : 44.100 Гц; 16 бит; стерео

TOC извлечённого CD

Трек | Старт | Длительность | Начальный сектор | Конечный сектор
---------------------------------------------------------------------
1 | 0:00.00 | 4:33.72 | 0 | 20546
2 | 4:33.72 | 4:51.65 | 20547 | 42436
3 | 9:25.62 | 7:21.38 | 42437 | 75549
4 | 16:47.25 | 5:57.25 | 75550 | 102349
5 | 22:44.50 | 8:22.24 | 102350 | 140023
6 | 31:06.74 | 4:45.28 | 140024 | 161426
7 | 35:52.27 | 24:16.36 | 161427 | 270662

Характеристики диапазона извлечения и сообщения об ошибках

Выбранный диапазон

Имя файла D:\Музыка православная\Светлана Копылова - И молится сама душа моя\Светлана Копылова - И молится сама душа моя.wav

Пиковый уровень 99.8 %
Качество диапазона 100.0 %
CRC копии A31AD3BC
Копирование... OK

Ошибок не произошло

AccurateRip: сводка
Трек 1 нет в базе данных
Трек 2 нет в базе данных
Трек 3 нет в базе данных
Трек 4 нет в базе данных
Трек 5 нет в базе данных
Трек 6 нет в базе данных
Трек 7 нет в базе данных
Ни одного трека нет в базе AccurateRip

Конец отчёта
Download

Войдите для скачивания торрент-файла

Как скачивать  ·   Правила трекера

 

Игорь I

Стаж: 7 лет 7 месяцев

Сообщений: 1503

Russia

post 21-Мар-2010 00:33 (спустя 4 месяца 18 дней)

[Цитировать] 

Благодарю!
[Профиль]  [ЛС] 

ХатаХомяка

Стаж: 4 года 7 месяцев

Сообщений: 31

Russia

post 09-Апр-2012 11:07 (спустя 2 года)

[Цитировать] 

Большое спасибо!!!
[Профиль]  [ЛС] 

eestimees

Стаж: 7 лет 6 месяцев

Сообщений: 21

Estonia

post 06-Фев-2013 02:45 (спустя 9 месяцев)

[Цитировать] 

Большое спасибо!
[Профиль]  [ЛС] 

0304mel

Стаж: 3 года 6 месяцев

Сообщений: 111

Russia

post 12-Окт-2014 19:00 (спустя 1 год 8 месяцев)

[Цитировать] 

Спаси БОГ!
[Профиль]  [ЛС] 
Показать сообщения:    
Ответить на тему

Текущее время: 07-Дек 22:14

Часовой пояс: GMT + 4



Вы не можете начинать темы
Вы не можете отвечать на сообщения
Вы не можете редактировать свои сообщения
Вы не можете удалять свои сообщения
Вы не можете голосовать в опросах
Вы не можете прикреплять файлы к сообщениям
Вы не можете скачивать файлы