Loading...
Error

(Духовные песни) Анна Пиркова Чистая вода - 2004, FLAC (image + .cue) + mp3 320 Kbps

Страницы:  1, 2, 3  След.

Ответить на тему
Статистика раздачи
Качают: [ 1 ]
Скачали: [ 11 ]
   
 
Автор Сообщение

сервп62

Стаж: 7 лет 9 месяцев

Сообщений: 303

post 02-Авг-2009 18:40

[Цитировать] 

pic
Анна Пиркова Чистая вода


Страна: Украина (Киево-Печерская Лавра)
Жанр: Духовные песни
Год выпуска: 2004
Формат:: FLAC (image + .cue) + MP3
Битрейт аудио: lossless + 320 Kbps
Дополнительно: В папке lossless выложены flac и cue файлы, в папке mp3 выложены файлы mp3 с битрейтом 320 Kbps, в папке обложки приложены сканы обложек и диска в разрешении 300 dpi
При добавлении закачки выбираем соответствующие папки
список песен
01. Звуки северного звона 2:36
02. На закате 2:24
03. Ах поле, поле... 1:44
04. Стой колосок... 2:14
05. Не кручинься много сердце 2:40
06. "Яко с нами Бог" 1:58
07. Молитва 3:07
08. Святитель Николай 2:40
09. Печальны инока глаза 2:53
10. Пред иконою 3:12
11. Свет весь 1:37
12. Чистая вода 3:49
13. Сердце пресвятое 2:47
14. Хороша эта земля 3:02
15. Троица 2:03
16. Матінка Божа 2:52
17. Странник 2:14
18. Свечечка 2:14
19. Плач Ярославны 1:11
20. Конь буланный 2:55
21. Тротуары Киев-града 2:20
отчёт EAC об извлечении
Exact Audio Copy V0.99 prebeta 4 from 23. January 2008

Отчёт EAC об извлечении, выполненном 2. августа 2009, 15:24

Unknown Artist / Unknown Title

Дисковод: Optiarc DVD RW AD-7530A Adapter: 0 ID: 1

Режим чтения : Достоверность
Использование точного потока : Да
Отключение кэша аудио : Да
Использование указателей C2 : Нет

Комбинированное смещение чтения/записи : 0
Способность читать области Lead-in и Lead-out : Нет
Заполнение пропущенных сэмплов тишиной : Да
Удаление блоков с тишиной в начале и конце : Нет
При вычислениях CRC использовались нулевые сэмплы : Да
Интерфейс : Установленный внешний ASPI-интерфейс

Выходной формат : Внутренние WAV-операции
Формат сэмплов : 44.100 Гц; 16 бит; стерео

TOC извлечённого CD

Трек | Старт | Длительность | Начальный сектор | Конечный сектор
---------------------------------------------------------------------
1 | 0:00.00 | 2:35.67 | 0 | 11691
2 | 2:35.67 | 2:24.20 | 11692 | 22511
3 | 5:00.12 | 1:44.21 | 22512 | 30332
4 | 6:44.33 | 2:13.57 | 30333 | 40364
5 | 8:58.15 | 2:39.45 | 40365 | 52334
6 | 11:37.60 | 1:57.60 | 52335 | 61169
7 | 13:35.45 | 3:06.59 | 61170 | 75178
8 | 16:42.29 | 2:40.45 | 75179 | 87223
9 | 19:22.74 | 2:53.45 | 87224 | 100243
10 | 22:16.44 | 3:12.50 | 100244 | 114693
11 | 25:29.19 | 1:37.02 | 114694 | 121970
12 | 27:06.21 | 3:49.46 | 121971 | 139191
13 | 30:55.67 | 2:47.20 | 139192 | 151736
14 | 33:43.12 | 3:01.63 | 151737 | 165374
15 | 36:45.00 | 2:03.05 | 165375 | 174604
16 | 38:48.05 | 2:52.03 | 174605 | 187507
17 | 41:40.08 | 2:14.29 | 187508 | 197586
18 | 43:54.37 | 2:14.74 | 197587 | 207710
19 | 46:09.36 | 1:10.68 | 207711 | 213028
20 | 47:20.29 | 2:54.51 | 213029 | 226129
21 | 50:15.05 | 2:19.50 | 226130 | 236604

Характеристики диапазона извлечения и сообщения об ошибках

Выбранный диапазон

Имя файла D:\Чистая вода\Unknown Artist - Unknown Title.wav

Пиковый уровень 96.4 %
Качество диапазона 99.8 %
CRC копии B9C0F9B1
Копирование... OK

Ошибок не произошло

Конец отчёта
Download

Войдите для скачивания торрент-файла

Как скачивать  ·   Правила трекера

[Профиль]  [ЛС] 

Academic Crack

Администратор

Стаж: 7 лет 11 месяцев

Сообщений: 2078

Russia

post 03-Авг-2009 00:51 (спустя 6 часов)

[Цитировать] 

Спасибо большое. Забираю.

_________________
pic
pic 100 Мбит/с, pic 100 Мбит/с.
Исправили раздачу? Пишите в личку со ссылкой на раздачу.
[Профиль]  [ЛС] 

РОСС

Стаж: 7 лет 6 месяцев

Сообщений: 62

Russia

post 27-Сен-2009 13:47 (спустя 1 месяц 24 дня)

[Цитировать] 

Спасибо!Буду качать.
[Профиль]  [ЛС] 

Alligator_S

Стаж: 7 лет 2 месяца

Сообщений: 4

Откуда: Kiev

Ukraine

post 09-Окт-2009 16:12 (спустя 12 дней)

[Цитировать] 

Хороший диск.

Спаси Господи!
[Профиль]  [ЛС] 

shine

post 02-Ноя-2009 23:25 (спустя 24 дня)

[Цитировать] 

Спасибо!!!
 

imob

post 06-Янв-2010 15:37 (спустя 2 месяца 3 дня)

[Цитировать] 

Спаси Господь!
 

NChery

post 18-Фев-2010 22:45 (спустя 1 месяц 12 дней)

[Цитировать] 

Спасибо, Великим постом- то, что нужно!
 

накотак

Стаж: 7 лет 1 месяц

Сообщений: 27

Откуда: Украина. Староконстантинов

Ukraine

post 14-Мар-2010 11:25 (спустя 23 дня)

[Цитировать] 

Спасибо. Замечательно лёгкий и чистый голос. Слушаешь, и, как будто, в роднике умываешься.
[Профиль]  [ЛС] 

olga23

post 21-Июл-2010 02:25 (спустя 4 месяца 6 дней)

[Цитировать] 

Спасибо. Буду качать. Еще не слушала, но чувствую, что для души - это то самое.
 

ФАМАРЬ1949

post 23-Авг-2010 08:39 (спустя 1 месяц 2 дня)

[Цитировать] 

Дай, Вам, Господи, здоровья !
 

Илия Блинов

post 19-Окт-2010 23:40 (спустя 1 месяц 27 дней)

[Цитировать] 

Спасибо за такую красоту! теперь буду искать оригинальный диск)
 

Олеся

post 08-Мар-2011 07:33 (спустя 4 месяца 19 дней)

[Цитировать] 

Спасибо!
 

SCK

Стаж: 6 лет 1 месяц

Сообщений: 150

post 05-Апр-2011 18:12 (спустя 28 дней)

[Цитировать] 

Спаси Вас Господи!
[Профиль]  [ЛС] 

SCK

Стаж: 6 лет 1 месяц

Сообщений: 150

post 05-Апр-2011 18:16 (спустя 3 минуты)

[Цитировать] 

Спаси Господи!
[Профиль]  [ЛС] 

vst

post 06-Апр-2011 20:07 (спустя 1 день 1 час)

[Цитировать] 

Молодец!!!! Спаси Господи!
 
Показать сообщения:    
Ответить на тему

Текущее время: 06-Дек 12:23

Часовой пояс: GMT + 4



Вы не можете начинать темы
Вы не можете отвечать на сообщения
Вы не можете редактировать свои сообщения
Вы не можете удалять свои сообщения
Вы не можете голосовать в опросах
Вы не можете прикреплять файлы к сообщениям
Вы не можете скачивать файлы