Loading...
Error

(Духовные песни) Песнопения Иеромонаха Романа, FLAC (image + .cue) + mp3 320 Kbps

Страницы:  1, 2, 3  След.

Ответить на тему
Статистика раздачи
Качают: [ 3 ]
Скачали: [ 36 ]
   
 
Автор Сообщение

сервп62

Стаж: 7 лет 9 месяцев

Сообщений: 303

post 04-Июн-2009 03:22

[Цитировать] 

Песнопения Иеромонаха Романа
pic
Страна: Белоруссия (Издательство Белорусского Экзархата)
Жанр: Духовные песни
Год выпуска: 2004
Формат:: FLAC (image + .cue) + MP3
Битрейт аудио: lossless + 320 Kbps
Дополнительно: В папках lossless выложены flac и cue файлы, в папках mp3 выложены файлы mp3 с битрейтом 320 Kbps, в папках обложки приложены сканы обложек и диска в разрешении 300 dpi
При добавлении закачки выбираем соответствующие папки
Мгновенье жизни-вечности предтеча (общее время звучания 78:33)
список песен
01. В минуту скорбную сию 5:21
02. Дом печали, дом печали 2:04
03. Теплится лампада, свет свечи весёлый 4:03
04. Когда пойду на суд душой 4:02
05. А первый снег, а первый снег потает 1:42
06. Отойди, отойди, грусть-печаль 2:57
07. Благословен еси, Господи (Псалом 41) 4:50
08. У меня мечта велия 4:24
09. Отошли от меня до единого 3:27
10. Пел соловей, ах, как он пел 3:28
11. И коснется меня боль обмана 3:08
12. А к сырой земле не прижаться мне 3:52
13. Ах ти тошненько, ох ти тошненько 3:43
14. Нас куда-то несет в непроглядную темь 3:00
15. В эту ночь, в эту ночь 4:51
16. Как мы жили. Себя похабили 4:40
17. Евангелист Божественной рукой 5:51
18. Это знают все наверняка 4:34
19. Снится мне одно и то же 4:09
20. Сиреневый рассвет 1:10
21. Всезнайства ослепляющие блики 1:37
22. Царю Небесный 1:57
отчёт EAC об извлечении
Exact Audio Copy V0.99 prebeta 4 from 23. January 2008

Отчёт EAC об извлечении, выполненном 22. апреля 2009, 13:29

Unknown Artist / Unknown Title

Дисковод: HL-DT-STDVDRAM GSA-4163B Adapter: 0 ID: 1

Режим чтения : Достоверность
Использование точного потока : Да
Отключение кэша аудио : Нет
Использование указателей C2 : Да

Комбинированное смещение чтения/записи : 0
Способность читать области Lead-in и Lead-out : Нет
Заполнение пропущенных сэмплов тишиной : Да
Удаление блоков с тишиной в начале и конце : Нет
При вычислениях CRC использовались нулевые сэмплы : Да
Интерфейс : Установленный внешний ASPI-интерфейс

Выходной формат : Внутренние WAV-операции
Формат сэмплов : 44.100 Гц; 16 бит; стерео

TOC извлечённого CD

Трек | Старт | Длительность | Начальный сектор | Конечный сектор
---------------------------------------------------------------------
1 | 0:00.00 | 5:21.54 | 0 | 24128
2 | 5:21.54 | 2:04.51 | 24129 | 33479
3 | 7:26.30 | 4:03.11 | 33480 | 51715
4 | 11:29.41 | 4:02.42 | 51716 | 69907
5 | 15:32.08 | 1:42.24 | 69908 | 77581
6 | 17:14.32 | 2:57.23 | 77582 | 90879
7 | 20:11.55 | 4:50.44 | 90880 | 112673
8 | 25:02.24 | 4:24.59 | 112674 | 132532
9 | 29:27.08 | 3:27.03 | 132533 | 148060
10 | 32:54.11 | 3:28.71 | 148061 | 163731
11 | 36:23.07 | 3:08.74 | 163732 | 177905
12 | 39:32.06 | 3:52.64 | 177906 | 195369
13 | 43:24.70 | 3:43.74 | 195370 | 212168
14 | 47:08.69 | 3:00.67 | 212169 | 225735
15 | 50:09.61 | 4:51.28 | 225736 | 247588
16 | 55:01.14 | 4:40.04 | 247589 | 268592
17 | 59:41.18 | 5:51.12 | 268593 | 294929
18 | 65:32.30 | 4:34.59 | 294930 | 315538
19 | 70:07.14 | 4:09.01 | 315539 | 334214
20 | 74:16.15 | 1:10.10 | 334215 | 339474
21 | 75:26.25 | 1:37.28 | 339475 | 346777
22 | 77:03.53 | 1:57.34 | 346778 | 355586

Характеристики диапазона извлечения и сообщения об ошибках

Выбранный диапазон

Имя файла D:\Дискография Иеромонаха Романа\Мгновенье жизни-вечности предтеча\Unknown Artist - Unknown Title.wav

Пиковый уровень 99.0 %
Качество диапазона 99.9 %
CRC копии 8CF37F67
Копирование... OK

Ошибок не произошло

Конец отчёта
скриншоты Tau Analyzer
pic
Радость моя, наступает пора покаянная (общее время звучания 74:32)
список песен
01. Колокольный звон над землей плывет 4:11
02. Много думал я о судьбе своей 6:32
03. О матери! бессонными ночами 5:20
04. Что ты спишь, восстань, душе моя 5:32
05. Слава Богу, снова я один 3:58
06. Ликует Рим в языческом веселье 4:17
07. Окутывает ночь дороги мраком 3:53
08. Радость моя, наступает пора покаянная 8:47
09. О, всепетая Мати 5:53
10. Белая ночь приготовила ложе на Псковщине 2:27
11. Я пойду по земле 3:30
12. Святая ночь! Блаженство и покой 1:46
13. Великоросс! какая красота 1:21
14. Луна и снег, и шорохи вдали 1:14
15. Что во имя свое сотворил, беспощадно порушу 3:24
16. Настроясь на высокую волну 1:45
17. Не утешаюсь тем, что вынужден оставить 1:16
18. Полоскают меня други ближние 2:46
19. Я проплывал на старой барже 3:07
20. Земное воплощение чистоты 1:04
21. Изнемогая от потерь 0:58
22. Горит свеча, псалтырь на аналое 1:31
отчёт EAC об извлечении
Exact Audio Copy V0.99 prebeta 4 from 23. January 2008

Отчёт EAC об извлечении, выполненном 22. апреля 2009, 14:08

Unknown Artist / Unknown Title

Дисковод: HL-DT-STDVDRAM GSA-4163B Adapter: 0 ID: 1

Режим чтения : Достоверность
Использование точного потока : Да
Отключение кэша аудио : Нет
Использование указателей C2 : Да

Комбинированное смещение чтения/записи : 0
Способность читать области Lead-in и Lead-out : Нет
Заполнение пропущенных сэмплов тишиной : Да
Удаление блоков с тишиной в начале и конце : Нет
При вычислениях CRC использовались нулевые сэмплы : Да
Интерфейс : Установленный внешний ASPI-интерфейс

Выходной формат : Внутренние WAV-операции
Формат сэмплов : 44.100 Гц; 16 бит; стерео

TOC извлечённого CD

Трек | Старт | Длительность | Начальный сектор | Конечный сектор
---------------------------------------------------------------------
1 | 0:00.00 | 4:11.00 | 0 | 18824
2 | 4:11.00 | 6:32.58 | 18825 | 48282
3 | 10:43.58 | 5:20.67 | 48283 | 72349
4 | 16:04.50 | 5:32.08 | 72350 | 97257
5 | 21:36.58 | 3:58.74 | 97258 | 115181
6 | 25:35.57 | 4:17.71 | 115182 | 134527
7 | 29:53.53 | 3:53.71 | 134528 | 152073
8 | 33:47.49 | 8:47.42 | 152074 | 191640
9 | 42:35.16 | 5:53.30 | 191641 | 218145
10 | 48:28.46 | 2:27.45 | 218146 | 229215
11 | 50:56.16 | 3:30.61 | 229216 | 245026
12 | 54:27.02 | 1:46.56 | 245027 | 253032
13 | 56:13.58 | 1:21.29 | 253033 | 259136
14 | 57:35.12 | 1:14.05 | 259137 | 264691
15 | 58:49.17 | 3:24.65 | 264692 | 280056
16 | 62:14.07 | 1:45.30 | 280057 | 287961
17 | 63:59.37 | 1:16.57 | 287962 | 293718
18 | 65:16.19 | 2:46.22 | 293719 | 306190
19 | 68:02.41 | 3:07.09 | 306191 | 320224
20 | 71:09.50 | 1:04.13 | 320225 | 325037
21 | 72:13.63 | 0:58.63 | 325038 | 329450
22 | 73:12.51 | 1:31.35 | 329451 | 336310

Характеристики диапазона извлечения и сообщения об ошибках

Выбранный диапазон

Имя файла D:\Дискография Иеромонаха Романа\Радость моя, наступает пора покаянная\Unknown Artist - Unknown Title.wav

Пиковый уровень 100.0 %
Качество диапазона 100.0 %
CRC копии 25A5AFA1
Копирование... OK

Ошибок не произошло

Конец отчёта
скриншоты Tau Analyzer
pic
Души моей Святыня (общее время звучания 78:19)
список песен
01. Прозрев необратимо поздно 2:36
02. Исчезну я с лица земли 3:31
03. Боже мой, Боже мой 4:17
04. О доброте бессмысленны слова 3:09
05. Земля от света повернет во тьму 5:31
06. Что, Адам, сидишь ты против Рая 5:26
07. Э, дорогой, а мы уже приехали 5:39
08. Принимай гостей, Москва 6:09
09. Поят Пилат Христа 8:01
10. Бом, бом, бом - утро растревожено 4:43
11. Пробил мой час. Пора приспела 3:14
12. Белый храм над рекою 3:19
13. А мне в России места не нашлось 3:05
14. Сон мне приснился, очень странный сон 3:36
15. Ты не пой, соловей 4:59
16. На чужой сторонушке рад своей воронушке 3:34
17. Люблю смотреть на звездное скопленье 1:13
18. Пойду за поля, в перелески 0:44
19. Я не ходил по жизни недотрогой 1:36
20. Молись, народ! 4:02
отчёт EAC об извлечении
Exact Audio Copy V0.99 prebeta 4 from 23. January 2008

Отчёт EAC об извлечении, выполненном 2. июня 2009, 12:22

Unknown Artist / Unknown Title

Дисковод: HL-DT-STDVDRAM GSA-4163B Adapter: 0 ID: 1

Режим чтения : Достоверность
Использование точного потока : Да
Отключение кэша аудио : Нет
Использование указателей C2 : Да

Комбинированное смещение чтения/записи : 0
Способность читать области Lead-in и Lead-out : Нет
Заполнение пропущенных сэмплов тишиной : Да
Удаление блоков с тишиной в начале и конце : Нет
При вычислениях CRC использовались нулевые сэмплы : Да
Интерфейс : Установленный внешний ASPI-интерфейс

Выходной формат : Внутренние WAV-операции
Формат сэмплов : 44.100 Гц; 16 бит; стерео

TOC извлечённого CD

Трек | Старт | Длительность | Начальный сектор | Конечный сектор
---------------------------------------------------------------------
1 | 0:00.00 | 2:36.57 | 0 | 11756
2 | 2:36.57 | 3:31.40 | 11757 | 27621
3 | 6:08.22 | 4:17.58 | 27622 | 46954
4 | 10:26.05 | 3:09.16 | 46955 | 61145
5 | 13:35.21 | 5:31.03 | 61146 | 85973
6 | 19:06.24 | 5:26.46 | 85974 | 110469
7 | 24:32.70 | 5:39.43 | 110470 | 135937
8 | 30:12.38 | 6:09.46 | 135938 | 163658
9 | 36:22.09 | 8:01.23 | 163659 | 199756
10 | 44:23.32 | 4:43.73 | 199757 | 221054
11 | 49:07.30 | 3:14.03 | 221055 | 235607
12 | 52:21.33 | 3:19.64 | 235608 | 250596
13 | 55:41.22 | 3:05.70 | 250597 | 264541
14 | 58:47.17 | 3:36.16 | 264542 | 280757
15 | 62:23.33 | 4:59.08 | 280758 | 303190
16 | 67:22.41 | 3:34.21 | 303191 | 319261
17 | 70:56.62 | 1:13.03 | 319262 | 324739
18 | 72:09.65 | 0:44.42 | 324740 | 328081
19 | 72:54.32 | 1:36.38 | 328082 | 335319
20 | 74:30.70 | 4:02.74 | 335320 | 353543

Характеристики диапазона извлечения и сообщения об ошибках

Выбранный диапазон

Имя файла D:\Дискография Иеромонаха Романа\Души моей Святыня\Unknown Artist - Unknown Title.wav

Пиковый уровень 100.0 %
Качество диапазона 100.0 %
CRC копии CE724D3D
Копирование... OK

Ошибок не произошло

Конец отчёта
скриншоты Tau Analyzer
pic
Какая милость, что над нами Бог (общее время звучания 74:12)
список песен
01. Гора Голгофа 6:30
02. Раскрою я Псалтырь святую 5:59
03. В этот час, полночный час 6:26
04. Пускай по мне злорадствуют в аду 4:35
05. Полночью, лунной полночью 4:29
06. Станем пред Царицею Небесною 8:35
07. Пост с молитвой сердце отогреет 9:35
08. Что за шум стоит. Далеко слыхать 3:58
09. Я сказал, что где-то 3:31
10. Иерусалим, Иерусалим 5:19
11. Всё моя молитва превозможет 3:39
12. Туман, туман, туман меня окутал 2:27
13. Ах оставьте, не нужно тревожить 2:01
14. О смерть, невыносим твой зрак 1:55
15. И млечный путь, и кроткий полумесяц 3:01
16. Наброшу мантию свою 2:03
отчёт EAC об извлечении
Exact Audio Copy V0.99 prebeta 4 from 23. January 2008

Отчёт EAC об извлечении, выполненном 22. апреля 2009, 13:59

Unknown Artist / Unknown Title

Дисковод: HL-DT-STDVDRAM GSA-4163B Adapter: 0 ID: 1

Режим чтения : Достоверность
Использование точного потока : Да
Отключение кэша аудио : Нет
Использование указателей C2 : Да

Комбинированное смещение чтения/записи : 0
Способность читать области Lead-in и Lead-out : Нет
Заполнение пропущенных сэмплов тишиной : Да
Удаление блоков с тишиной в начале и конце : Нет
При вычислениях CRC использовались нулевые сэмплы : Да
Интерфейс : Установленный внешний ASPI-интерфейс

Выходной формат : Внутренние WAV-операции
Формат сэмплов : 44.100 Гц; 16 бит; стерео

TOC извлечённого CD

Трек | Старт | Длительность | Начальный сектор | Конечный сектор
---------------------------------------------------------------------
1 | 0:00.00 | 6:30.55 | 0 | 29304
2 | 6:30.55 | 5:59.62 | 29305 | 56291
3 | 12:30.42 | 6:26.46 | 56292 | 85287
4 | 18:57.13 | 4:35.33 | 85288 | 105945
5 | 23:32.46 | 4:29.24 | 105946 | 126144
6 | 28:01.70 | 8:35.72 | 126145 | 164841
7 | 36:37.67 | 9:35.21 | 164842 | 207987
8 | 46:13.13 | 3:58.38 | 207988 | 225875
9 | 50:11.51 | 3:31.69 | 225876 | 241769
10 | 53:43.45 | 5:19.50 | 241770 | 265744
11 | 59:03.20 | 3:39.47 | 265745 | 282216
12 | 62:42.67 | 2:27.72 | 282217 | 293313
13 | 65:10.64 | 2:01.47 | 293314 | 302435
14 | 67:12.36 | 1:55.30 | 302436 | 311090
15 | 69:07.66 | 3:01.09 | 311091 | 324674
16 | 72:09.00 | 2:03.59 | 324675 | 333958

Характеристики диапазона извлечения и сообщения об ошибках

Выбранный диапазон

Имя файла D:\Дискография Иеромонаха Романа\Какая милость, что над нами Бог\Unknown Artist - Unknown Title.wav

Пиковый уровень 99.4 %
Качество диапазона 100.0 %
CRC копии EE124B6C
Копирование... OK

Ошибок не произошло

Конец отчёта
скриншоты Tau Analyzer
pic[/URL]
Вся Россия стала полем Куликовым (общее время звучания 78:35)
список песен
01. Уже вечер, друзья, уже вечер 4:06
02. Это песня плененных, гонимых врагом 5:43
03. Оглядывая прожитую жизнь 3:14
04. Всё на земле для вас живущих 4:06
05. Прибит на крест моей неправдой 2:20
06. Отложим попечение, покаяния пора наста 5:03
07. Я пойду, где стоят корабли 3:54
08. Земную твердь луна оголубила 1:24
09. Ах, как я долго плыл 2:59
10. Маэстро кисти и палитры 1:52
11. Во многом знаньи многая печаль 1:53
12. Придет зима, она всегда приходит 2:54
13. Не разрывайте истину на мненья 2:42
14. Пожалей, дорогой, пожалей 3:05
15. Исполнился мой дух нечистоты и мрака 3:35
16. Вся Россия стала полем Куликовым 2:40
17. Господам лицедеям 4:17
18. Глаголе вещи [поэма] 17:47
19. Когда земля исполнится порока 1:05
20. Ах, как птицы поют 4:00
отчёт EAC об извлечении
Exact Audio Copy V0.99 prebeta 4 from 23. January 2008

Отчёт EAC об извлечении, выполненном 2. июня 2009, 12:47

Unknown Artist / Unknown Title

Дисковод: HL-DT-STDVDRAM GSA-4163B Adapter: 0 ID: 1

Режим чтения : Достоверность
Использование точного потока : Да
Отключение кэша аудио : Нет
Использование указателей C2 : Да

Комбинированное смещение чтения/записи : 0
Способность читать области Lead-in и Lead-out : Нет
Заполнение пропущенных сэмплов тишиной : Да
Удаление блоков с тишиной в начале и конце : Нет
При вычислениях CRC использовались нулевые сэмплы : Да
Интерфейс : Установленный внешний ASPI-интерфейс

Выходной формат : Внутренние WAV-операции
Формат сэмплов : 44.100 Гц; 16 бит; стерео

TOC извлечённого CD

Трек | Старт | Длительность | Начальный сектор | Конечный сектор
---------------------------------------------------------------------
1 | 0:00.00 | 4:06.54 | 0 | 18503
2 | 4:06.54 | 5:43.48 | 18504 | 44276
3 | 9:50.27 | 3:14.19 | 44277 | 58845
4 | 13:04.46 | 4:06.31 | 58846 | 77326
5 | 17:11.02 | 2:20.46 | 77327 | 87872
6 | 19:31.48 | 5:03.12 | 87873 | 110609
7 | 24:34.60 | 3:54.24 | 110610 | 128183
8 | 28:29.09 | 1:24.05 | 128184 | 134488
9 | 29:53.14 | 2:59.30 | 134489 | 147943
10 | 32:52.44 | 1:52.57 | 147944 | 156400
11 | 34:45.26 | 1:53.16 | 156401 | 164891
12 | 36:38.42 | 2:54.71 | 164892 | 178012
13 | 39:33.38 | 2:42.34 | 178013 | 190196
14 | 42:15.72 | 3:05.07 | 190197 | 204078
15 | 45:21.04 | 3:35.25 | 204079 | 220228
16 | 48:56.29 | 2:40.17 | 220229 | 232245
17 | 51:36.46 | 4:17.25 | 232246 | 251545
18 | 55:53.71 | 17:47.50 | 251546 | 331620
19 | 73:41.46 | 1:05.29 | 331621 | 336524
20 | 74:47.00 | 4:00.05 | 336525 | 354529

Характеристики диапазона извлечения и сообщения об ошибках

Выбранный диапазон

Имя файла D:\Дискография Иеромонаха Романа\Вся Россия стала полем Куликовым\Unknown Artist - Unknown Title.wav

Подозрительная позиция 0:41:35
Подозрительная позиция 0:41:42
Подозрительная позиция 0:41:44
Подозрительная позиция 0:41:46 - 0:41:47
Подозрительная позиция 0:53:45
Подозрительная позиция 0:53:49 - 0:53:52
Подозрительная позиция 0:53:55 - 0:53:56
Подозрительная позиция 0:53:58 - 0:54:03
Подозрительная позиция 0:54:11

Пиковый уровень 100.0 %
Качество диапазона 98.9 %
CRC копии EEDABF0A
Копирование завершено

Были ошибки

Конец отчёта
скриншоты Tau Analyzer
pic
Все истинное, вечное-не здесь (общее время звучания 78:34)
список песен
01. Я родился в ночь осеннюю 4:42
02. Я нарисую старый дом 3:00
03. В келии лампаду затеплю 5:01
04. Я лежу на холме, на холме стоит крест дубовый 2:48
05. Вижу я себя седым-седым во сне 5:30
06. Жизнь прожить - не поле перейти 4:24
07. Заночую в стогу, по-звериному вырою нору 5:08
08. Красотой октября запорошен 2:50
09. Я умру, но только б не сейчас 2:43
10. Звон погребальный 6:31
11. Мой старый друг, когда на склоне дня 5:25
12. Приидите, ублажим Иосифа 5:26
13. Если тебя неудача постигла 3:57
14. Матушка Добрынюшке наказывала 6:00
15. Благорастворение воздухов 3:38
16. Пел слепой заученное с детства 4:54
17. Жду тебя напрасно я 2:17
18. О, Сербия! 0:45
19. Доколь искать пленительное счастье 2:24
20. Не омрачить бы ненароком совесть1:09
отчёт EAC об извлечении
Exact Audio Copy V0.99 prebeta 4 from 23. January 2008

Отчёт EAC об извлечении, выполненном 2. июня 2009, 11:10

Unknown Artist / Unknown Title

Дисковод: HL-DT-STDVDRAM GSA-4163B Adapter: 0 ID: 1

Режим чтения : Достоверность
Использование точного потока : Да
Отключение кэша аудио : Нет
Использование указателей C2 : Да

Комбинированное смещение чтения/записи : 0
Способность читать области Lead-in и Lead-out : Нет
Заполнение пропущенных сэмплов тишиной : Да
Удаление блоков с тишиной в начале и конце : Нет
При вычислениях CRC использовались нулевые сэмплы : Да
Интерфейс : Установленный внешний ASPI-интерфейс

Выходной формат : Внутренние WAV-операции
Формат сэмплов : 44.100 Гц; 16 бит; стерео

TOC извлечённого CD

Трек | Старт | Длительность | Начальный сектор | Конечный сектор
---------------------------------------------------------------------
1 | 0:00.00 | 4:42.31 | 0 | 21180
2 | 4:42.31 | 3:00.18 | 21181 | 34698
3 | 7:42.49 | 5:01.34 | 34699 | 57307
4 | 12:44.08 | 2:48.69 | 57308 | 69976
5 | 15:33.02 | 5:30.70 | 69977 | 94796
6 | 21:03.72 | 4:24.68 | 94797 | 114664
7 | 25:28.65 | 5:08.40 | 114665 | 137804
8 | 30:37.30 | 2:50.35 | 137805 | 150589
9 | 33:27.65 | 2:43.71 | 150590 | 162885
10 | 36:11.61 | 6:31.09 | 162886 | 192219
11 | 42:42.70 | 5:25.68 | 192220 | 216662
12 | 48:08.63 | 5:26.53 | 216663 | 241165
13 | 53:35.41 | 3:57.18 | 241166 | 258958
14 | 57:32.59 | 6:00.05 | 258959 | 285963
15 | 63:32.64 | 3:38.40 | 285964 | 302353
16 | 67:11.29 | 4:54.64 | 302354 | 324467
17 | 72:06.18 | 2:17.07 | 324468 | 334749
18 | 74:23.25 | 0:45.00 | 334750 | 338124
19 | 75:08.25 | 2:24.74 | 338125 | 348998
20 | 77:33.24 | 1:09.74 | 348999 | 354247

Характеристики диапазона извлечения и сообщения об ошибках

Выбранный диапазон

Имя файла D:\Дискография Иеромонаха Романа\Все истинное, вечное-не здесь\Unknown Artist - Unknown Title.wav

Пиковый уровень 100.0 %
Качество диапазона 100.0 %
CRC теста 7F3FBFE6
CRC копии 7F3FBFE6
Копирование... OK

Ошибок не произошло

Конец отчёта
скриншоты Tau Analyzer
pic
Download

Войдите для скачивания торрент-файла

Как скачивать  ·   Правила трекера

[Профиль]  [ЛС] 

mypostalbox

Стаж: 7 лет 4 месяца

Сообщений: 58

Откуда: г.Волжский

Russia

post 24-Сен-2009 11:45 (спустя 3 месяца 20 дней)

[Цитировать] 

благодарю от всего сердца!!!!!!!

_________________
прощение выше мщения,а доброта сильнее гнева
[Профиль]  [ЛС] 

Imbalance

post 16-Дек-2009 23:33 (спустя 2 месяца 22 дня)

[Цитировать] 

Спаси вас Господи за духовную радость!
 

zheka_juli

post 25-Дек-2009 19:21 (спустя 8 дней)

[Цитировать] 

спасибо!!! Smile
 

Valent

Стаж: 7 лет 3 месяца

Сообщений: 8

Ukraine

post 20-Янв-2010 18:21 (спустя 25 дней)

[Цитировать] 

Благодарю.

Спаси Вас Господи!
[Профиль]  [ЛС] 

rublev

Стаж: 7 лет 9 месяцев

Сообщений: 60

Ukraine

post 14-Фев-2010 01:20 (спустя 24 дня)

[Цитировать] 

Спасибо!
[Профиль]  [ЛС] 

накотак

Стаж: 7 лет 1 месяц

Сообщений: 27

Откуда: Украина. Староконстантинов

Ukraine

post 14-Мар-2010 00:49 (спустя 27 дней)

[Цитировать] 

Спасибо. Если бы вы знали, как я обожаю эти чудные, искренние, напоённные Богом песни!
[Профиль]  [ЛС] 

Marlen_5

post 22-Мар-2010 14:01 (спустя 8 дней)

[Цитировать] 

Спаси Вас Господи!
 

Student_M

Стаж: 7 лет 1 месяц

Сообщений: 40

Greece

post 23-Апр-2010 15:44 (спустя 1 месяц 1 день)

[Цитировать] 

Очень хорошие песни... успокаивают!

Братья и сестры, если кто не может скачать с торрента ети файлы - можно взять их отсюда: http://bogoglasnik.ru.

Спаси Господи!


Последний раз редактировалось: Student_M (2012-02-21 15:06), всего редактировалось 1 раз
[Профиль]  [ЛС] 

ЛВП

Стаж: 6 лет 9 месяцев

Сообщений: 4

Откуда: Москва

Russia

post 12-Июн-2010 19:09 (спустя 1 месяц 19 дней)

[Цитировать] 

Замечательные песни!
Спаси Вас Господи!
[Профиль]  [ЛС] 

Bich

post 09-Сен-2010 19:26 (спустя 2 месяца 27 дней)

[Цитировать] 

вводят в уныние...
 

E1146

Стаж: 7 лет 4 месяца

Сообщений: 9

Russia

post 15-Окт-2010 00:22 (спустя 1 месяц 5 дней)

[Цитировать] 

Спаси Вас Господи!
[Профиль]  [ЛС] 

Игорь Русяев

Стаж: 6 лет 1 месяц

Сообщений: 11

Russia

post 17-Окт-2010 16:52 (спустя 2 дня 16 часов)

[Цитировать] 

Спаси Господь!!!!!!!!!!!!!
[Профиль]  [ЛС] 

ktoto8

Стаж: 6 лет 9 месяцев

Сообщений: 65

Russia

post 05-Дек-2010 22:03 (спустя 1 месяц 19 дней)

[Цитировать] 

Спаси Господи!!!!!!
[Профиль]  [ЛС] 

Александр Донцов

Стаж: 6 лет 11 месяцев

Сообщений: 454

post 07-Дек-2010 01:43 (спустя 1 день 3 часа)

[Цитировать] 

Спаси Господи
[Профиль]  [ЛС] 
Показать сообщения:    
Ответить на тему

Текущее время: 07-Дек 01:43

Часовой пояс: GMT + 4



Вы не можете начинать темы
Вы не можете отвечать на сообщения
Вы не можете редактировать свои сообщения
Вы не можете удалять свои сообщения
Вы не можете голосовать в опросах
Вы не можете прикреплять файлы к сообщениям
Вы не можете скачивать файлы